Маршрут построен / нет (Олег Асадулин) [2016, Россия, ужасы, триллер, HDRip]

Ответить на тему
 

Ms.Universe ®

Стаж: 1 год

Сообщений: 4

Симпатии: 1

Маршрут построен / нет
Страна: Россия
Жанр: ужасы, триллер
Год выпуска: 2016
Продолжительность: 01:21:44
Перевод: Не требуется
Cубтитры: нет
Режиссер: Олег Асадулин
В ролях: Светлана Устинова
Павел Чинарёв
Виталия Корниенко
Кристина Шаповалова
Сергей Сафронов
Илья Сафронов
Андрей Сафронов
Диана Мелисон
Александр Цёма
Описание: Прошлой весной произошло страшное преступление — в результате ссоры муж убил жену, расчленил труп и спрятал в багажнике автомобиля.
Андрей и Ольга — семейная пара. Андрей покупает подозрительно дешевый автомобиль в хорошем состоянии. Тем же вечером, взяв свою пятилетнюю дочь, они отправляются в ночную поездку в другой город. В дороге Ольга слышит какие-то странные звуки и говорит Андрею, что чувствует — с машиной что-то не то. Это вызывает раздражение Андрея, который ничего этого не замечает, и становится поводом для конфликта. Тем временем их дочка на заднем сидении общается с какой-то невидимой тетей, но родители не слышат. Призрак убитой женщины не любит семейных ссор, и наши герои в ее власти… Их маршрут уже построен.
Качество видео: HDRip
Формат видео: MP4
Видео: Видео Идентификатор : 1 Формат : AVC Формат/Информация : Advanced Video Codec Профиль формата
Аудио: Аудио Идентификатор : 2 Формат : AAC Формат/Информация : Advanced Audio Codec Профиль формата

MediaInfo

Общее
Полное имя : D:\МУВИС\Marshrut.postroen.2015.O.WEB-DL.1080p..mp4
Формат : MPEG-4
Профиль формата : Base Media
Идентификатор кодека : isom (isom/iso2/avc1/mp41)
Размер файла : 1,51 Гбайт
Продолжительность : 1 ч. 21 м.
Общий поток : 2645 Кбит/сек
Программа кодирования : Lavf57.29.101
Видео
Идентификатор : 1
Формат : AVC
Формат/Информация : Advanced Video Codec
Профиль формата : [email protected]
Параметр CABAC формата : Да
Параметр ReFrames формата : 4 кадра
Идентификатор кодека : avc1
Идентификатор кодека/Информация : Advanced Video Coding
Продолжительность : 1 ч. 21 м.
Битрейт : 2510 Кбит/сек
Ширина : 1920 пикселей
Высота : 816 пикселей
Соотношение сторон : 2,35:1
Режим частоты кадров : Постоянный
Частота кадров : 24,000 кадра/сек
Цветовое пространство : YUV
Субдискретизация насыщенности : 4:2:0
Битовая глубина : 8 бит
Тип развёртки : Прогрессивная
Бит/(Пиксели*Кадры) : 0.067
Размер потока : 1,43 Гбайт (95%)
Библиотека кодирования : x264 core 148 r2665 a01e339
Настройки программы : cabac=1 / ref=3 / deblock=1:0:0 / analyse=0x3:0x113 / me=hex / subme=7 / psy=1 / psy_rd=1.00:0.00 / mixed_ref=1 / me_range=16 / chroma_me=1 / trellis=1 / 8x8dct=1 / cqm=0 / deadzone=21,11 / fast_pskip=1 / chroma_qp_offset=-2 / threads=6 / lookahead_threads=1 / sliced_threads=0 / nr=0 / decimate=1 / interlaced=0 / bluray_compat=0 / constrained_intra=0 / bframes=3 / b_pyramid=2 / b_adapt=1 / b_bias=0 / direct=1 / weightb=1 / open_gop=0 / weightp=2 / keyint=24 / keyint_min=2 / scenecut=40 / intra_refresh=0 / rc_lookahead=24 / rc=crf / mbtree=1 / crf=23.0 / qcomp=0.60 / qpmin=0 / qpmax=69 / qpstep=4 / ip_ratio=1.40 / aq=1:1.00
Аудио
Идентификатор : 2
Формат : AAC
Формат/Информация : Advanced Audio Codec
Профиль формата : LC
Идентификатор кодека : 40
Продолжительность : 1 ч. 21 м.
Вид битрейта : Постоянный
Битрейт : 128 Кбит/сек
Каналы : 2 канала
Расположение каналов : Front: L R
Частота : 44,1 КГц
Частота кадров : 43,066 кадра/сек (1024 spf)
Метод сжатия : С потерями
Размер потока : 75,0 Мбайт (5%)
Default : Да
Alternate group : 1

Скриншот c названием фильма

Скриншоты



Создавать темы 06-Авг-2016 16:18

[Профиль]  [ЛС] 

Топик был перенесен из форума Фильмы за 2016 в форум Видео для мобильных устройств
ruhal

Создавать темы 07-Авг-2016 08:13

 
Показать сообщения:    
Ответить на тему

Текущее время: 16-Авг 22:36

Часовой пояс: UTC + 5



Вы не можете начинать темы
Вы не можете отвечать на сообщения
Вы не можете редактировать свои сообщения
Вы не можете удалять свои сообщения
Вы не можете голосовать в опросах
Вы не можете прикреплять файлы к сообщениям
Вы не можете скачивать файлы