Чистое искусство (Ренат Давлетьяров) [2016, триллер, детектив, HDRip, AVC]

Ответить на тему
 

Ms.Universe ®

Стаж: 1 год 4 месяца

Сообщений: 4

Симпатии: 1

Чистое искусство
Жанр: триллер, детектив
Год выпуска: 2016
Продолжительность: 01:33
Режиссёр: Ренат Давлетьяров
В ролях: Анна Чиповская
Пётр Фёдоров
Константин Юшкевич
Илья Любимов
Дмитрий Брауэр
Александр Яценко
Алексей Барабаш
Леонид Мозговой
Людмила Чурсина
Анатолий Белый
Описание: «Ты живешь свою жизнь, думаешь про завтра и не знаешь, что кто-то чужой уже влез в твою жизнь и все в ней зачеркнул…»
Саша — известный фотограф. Она молода и красива. Неожиданно ее счастливая жизнь рушится. Она становится свидетелем загадочного убийства и тут же оказывается вовлеченной в криминальную аферу, связанную с живописью и большими деньгами. Теперь кажется, что весь мир против нее — за ней охотятся и хотят убить. Пытаясь понять, что с ней происходит, Саша не готова сдаваться. Движимая стремлением разгадать тайну, она начинает свое расследование…
Качество видео: HDRip
Формат видео: MP4
Видео: Видео
Идентификатор : 1
Формат : AVC
Формат/Информация : Advanced Video Codec
Профиль формата : [email protected]
Параметр CABAC формата : Да
Параметр ReFrames формата : 4 кадра
Параметр GOP формата : M=4, N=24
Идентификатор кодека : avc1
Идентификатор кодека/Информация : Advanced Video Coding
Продолжительность : 1 ч. 28 м.
Битрейт : 662 Кбит/сек
Ширина : 720 пикселей
Высота : 400 пикселей
Соотношение сторон : 16:9
Режим частоты кадров : Постоянный
Частота кадров : 24,000 кадра/сек
Цветовое пространство : YUV
Субдискретизация насыщенности : 4:2:0
Битовая глубина : 8 бит
Тип развёртки : Прогрессивная
Бит/(Пиксели*Кадры) : 0.096
Размер потока : 420 Мбайт (82%) : Advanced Video Codec Профиль формата
Аудио: Аудио
Идентификатор : 2
Формат : AAC
Формат/Информация : Advanced Audio Codec
Профиль формата : LC
Идентификатор кодека : 40
Продолжительность : 1 ч. 28 м.
Duration_LastFrame : -11 мс.
Вид битрейта : Постоянный
Битрейт : 140 Кбит/сек
Каналы : 2 канала
Расположение каналов : Front: L R
Частота : 48,0 КГц
Частота кадров : 46,875 кадров/сек (1024 spf)
Метод сжатия : С потерями
Размер потока : 88,5 Мбайт (17%)

MediaInfo

Формат : MPEG-4
Профиль формата : Base Media
Идентификатор кодека : isom (isom/iso2/avc1/mp41)
Размер файла : 512 Мбайт
Продолжительность : 1 ч. 28 м.
Общий поток : 808 Кбит/сек
Программа кодирования : Lavf57.29.101
Видео
Идентификатор : 1
Формат : AVC
Формат/Информация : Advanced Video Codec
Профиль формата : [email protected]
Параметр CABAC формата : Да
Параметр ReFrames формата : 4 кадра
Параметр GOP формата : M=4, N=24
Идентификатор кодека : avc1
Идентификатор кодека/Информация : Advanced Video Coding
Продолжительность : 1 ч. 28 м.
Битрейт : 662 Кбит/сек
Ширина : 720 пикселей
Высота : 400 пикселей
Соотношение сторон : 16:9
Режим частоты кадров : Постоянный
Частота кадров : 24,000 кадра/сек
Цветовое пространство : YUV
Субдискретизация насыщенности : 4:2:0
Битовая глубина : 8 бит
Тип развёртки : Прогрессивная
Бит/(Пиксели*Кадры) : 0.096
Размер потока : 420 Мбайт (82%)
Библиотека кодирования : x264 core 148 r2665 a01e339
Настройки программы : cabac=1 / ref=3 / deblock=1:0:0 / analyse=0x3:0x113 / me=hex / subme=7 / psy=1 / psy_rd=1.00:0.00 / mixed_ref=1 / me_range=16 / chroma_me=1 / trellis=1 / 8x8dct=1 / cqm=0 / deadzone=21,11 / fast_pskip=1 / chroma_qp_offset=-2 / threads=6 / lookahead_threads=1 / sliced_threads=0 / nr=0 / decimate=1 / interlaced=0 / bluray_compat=0 / constrained_intra=0 / bframes=3 / b_pyramid=2 / b_adapt=1 / b_bias=0 / direct=1 / weightb=1 / open_gop=0 / weightp=2 / keyint=24 / keyint_min=2 / scenecut=40 / intra_refresh=0 / rc_lookahead=24 / rc=crf / mbtree=1 / crf=23.0 / qcomp=0.60 / qpmin=0 / qpmax=69 / qpstep=4 / ip_ratio=1.40 / aq=1:1.00
Аудио
Идентификатор : 2
Формат : AAC
Формат/Информация : Advanced Audio Codec
Профиль формата : LC
Идентификатор кодека : 40
Продолжительность : 1 ч. 28 м.
Duration_LastFrame : -11 мс.
Вид битрейта : Постоянный
Битрейт : 140 Кбит/сек
Каналы : 2 канала
Расположение каналов : Front: L R
Частота : 48,0 КГц
Частота кадров : 46,875 кадров/сек (1024 spf)
Метод сжатия : С потерями
Размер потока : 88,5 Мбайт (17%)
Default : Да
Alternate group : 1

Скриншот c названием фильма

Скриншоты





Последний раз редактировалось: Ms.Universe (2016-08-10 19:14), всего редактировалось 1 раз

Создавать темы 07-Авг-2016 12:59

[Профиль]  [ЛС] 
Показать сообщения:    
Ответить на тему

Текущее время: 15-Дек 02:06

Часовой пояс: UTC + 5



Вы не можете начинать темы
Вы не можете отвечать на сообщения
Вы не можете редактировать свои сообщения
Вы не можете удалять свои сообщения
Вы не можете голосовать в опросах
Вы не можете прикреплять файлы к сообщениям
Вы не можете скачивать файлы