Что ни день то неприятности / Trouble Every Day (Клер Дени / Claire Denis) [2001, Франция, Германия, Япония, ужасы, триллер, драма, DVDRip] MVO + original

Ответить на тему
 

kat222000 ®

Стаж: 6 лет 4 месяца

Сообщений: 608

Симпатии: 1055

Что ни день то неприятности / Trouble Every Day«Как вкусна плоть любимой женщины» Страна: Франция, Германия, Япония
Жанр: ужасы, триллер, драма
Год выпуска: 2001
Продолжительность: 01:36:42
Перевод: Профессиональный (многоголосый закадровый) | Официальный звук
Субтитры: нет-Режиссер: Клер Дени / Claire Denis-В ролях: Винсент Галло, Беатрис Даль, Триша Весси, Алекс Дека, Флоренс Лорье, Николя Дювошель, Рафаэь Нил, Жозе Гарсия, Марилу Марини.-Описание: Молодожёны Шейн и Джун Браун приезжают в Париж на медовый месяц. Но мысли Шейна далеки от романтики, ибо он стал жертвой безрассудных экспериментов французского доктора Лео Семено, изучавшего особенности полового влечения у людей, в результате которых Шейн теперь хочет съесть свою жену. Он надеется найти учёного, но судьба сталкивает его с Корой, женой Лео, поражённой той же страшной болезнью.- -Возраст: зрителям, достигшим 18 лет-Рейтинг MPAA: лицам до 17 лет обязательно присутствие взрослого-Качество видео: DVDRip
Формат видео: AVI
Видео кодек: XviD
Аудио кодек: AC3
Видео: 688x384 (1.79:1), 25 fps, XviD 1.2 beta 1 (build 43) ~1248 kbps avg, 0.19 bit/pixel
Аудио 1: 48 kHz, AC3 Dolby Digital, 3/2 (L,C,R,l,r) + LFE ch, ~384 kbps (Русский | MVO)
Аудио 2: 48 kHz, AC3 Dolby Digital, 3/2 (L,C,R,l,r) + LFE ch, ~384 kbps (English | Original) -

〤 ОтчетМедиаИнфо 〤

General
Complete name : D:\Фильмы\Арт Хаус\Chto.ni.den.to.nepriyatnosti.avi
Format : AVI
Format/Info : Audio Video Interleave
File size : 1.37 GiB
Duration : 1h 36mn
Overall bit rate : 2 025 Kbps
Writing application : VirtualDubMod 1.5.4.1 (build 2178/release)
Writing library : VirtualDubMod build 2178/release
Video
ID : 0
Format : MPEG-4 Visual
Format profile : Advanced [email protected]
Format settings, BVOP : Yes
Format settings, QPel : No
Format settings, GMC : No warppoints
Format settings, Matrix : Custom
Codec ID : XVID
Codec ID/Hint : XviD
Duration : 1h 36mn
Bit rate : 1 249 Kbps
Width : 688 pixels
Height : 384 pixels
Display aspect ratio : 16:9
Frame rate : 25.000 fps
Color space : YUV
Chroma subsampling : 4:2:0
Bit depth : 8 bits
Scan type : Progressive
Compression mode : Lossy
Bits/(Pixel*Frame) : 0.189
Stream size : 864 MiB (62%)
Writing library : XviD 1.2.0SMP (UTC 2006-01-08)
Audio #1
ID : 1
Format : AC-3
Format/Info : Audio Coding 3
Mode extension : CM (complete main)
Format settings, Endianness : Big
Codec ID : 2000
Duration : 1h 36mn
Bit rate mode : Constant
Bit rate : 384 Kbps
Channel(s) : 6 channels
Channel positions : Front: L C R, Side: L R, LFE
Sampling rate : 48.0 KHz
Bit depth : 16 bits
Compression mode : Lossy
Stream size : 266 MiB (19%)
Alignment : Split accross interleaves
Interleave, duration : 96 ms (2.40 video frames)
Interleave, preload duration : 96 ms
Language : Russian
Audio #2
ID : 2
Format : AC-3
Format/Info : Audio Coding 3
Mode extension : CM (complete main)
Format settings, Endianness : Big
Codec ID : 2000
Duration : 1h 36mn
Bit rate mode : Constant
Bit rate : 384 Kbps
Channel(s) : 6 channels
Channel positions : Front: L C R, Side: L R, LFE
Sampling rate : 48.0 KHz
Bit depth : 16 bits
Compression mode : Lossy
Stream size : 266 MiB (19%)
Alignment : Split accross interleaves
Interleave, duration : 96 ms (2.40 video frames)
Interleave, preload duration : 96 ms
Language : English
-

〤 Скриншоты 〤



- © Оформление by kat222000

Создавать темы 14-Авг-2016 12:57

[Профиль]  [ЛС] 
Показать сообщения:    
Ответить на тему

Текущее время: 24-Авг 13:34

Часовой пояс: UTC + 5



Вы не можете начинать темы
Вы не можете отвечать на сообщения
Вы не можете редактировать свои сообщения
Вы не можете удалять свои сообщения
Вы не можете голосовать в опросах
Вы не можете прикреплять файлы к сообщениям
Вы не можете скачивать файлы