Иллюзия обмана 2 / Now You See Me 2 (Джон М. Чу) [2016, США, боевик, триллер, комедия, ВDRip] ВDRip | D | RUS Transfer

Ответить на тему
 

mp1988 ®

Стаж: 6 лет 6 месяцев

Сообщений: 607

Симпатии: 971

-Иллюзия обмана 2 / Now You See Me 2- --Страна: США
Производство: Lionsgate, Summit Entertainment
Год выпуска: 2016
Жанр: боевик, триллер, комедия
Продолжительность: 02:09:29--Режиссер: Джон М. Чу
Авторы сценария: Эд Соломон, Пит Чиарелли, Боаз Якин--В ролях: Лиззи Каплан, Дэниэл Рэдклифф, Дэйв Франко, Марк Руффало, Джесси Айзенберг, Морган Фриман, Вуди Харрельсон, Майкл Кейн
Описание: «Четыре всадника», команда лучших иллюзионистов мира, снова в сборе! Их «магия» стала еще совершеннее, а враги — опаснее. На сей раз им предстоит спасти свою репутацию и вывести на чистую воду жестокого техномагната…--Перевод: Профессиональный (полное дублирование)
Субтитры: нет--Качество: ВDRip
Формат: АVI
Видео кодек: XviD
Аудио кодек: АС3
Видео: 720x400 (16:9), 24.000 fps, XviD build 66 ~1 143 kbps avg
Аудио: 48.0 kHz, AC3 Dolby Digital, 3/2 (L,C,R,l,r) + LFE ch, ~448 kbps
Дата премьеры (мир): 2 июня 2016
Дата премьеры (РФ): 9 июня 2016, «Централ Партнершип»

MediaInfo

General
Complete name : Now.You.See.Me.2.2016.D.BDRip.1490MB-HDT.avi
Format : AVI
Format/Info : Audio Video Interleave
File size : 1.45 GiB
Duration : 2h 9mn
Overall bit rate : 1 599 Kbps
Video #0
ID : 0
Format : MPEG-4 Visual
Format profile : Advanced [email protected]
Format settings, BVOP : 2
Format settings, QPel : No
Format settings, GMC : No warppoints
Format settings, Matrix : Default (H.263)
Muxing mode : Packed bitstream
Codec ID : XVID
Codec ID/Hint : XviD
Duration : 2h 9mn
Bit rate : 1 143 Kbps
Width : 720 pixels
Height : 400 pixels
Display aspect ratio : 16:9
Frame rate : 24.000 fps
Color space : YUV
Chroma subsampling : 4:2:0
Bit depth : 8 bits
Scan type : Progressive
Compression mode : Lossy
Bits/(Pixel*Frame) : 0.165
Stream size : 1.03 GiB (71%)
Writing library : XviD 66
Audio #1
ID : 1
Format : AC-3
Format/Info : Audio Coding 3
Mode extension : CM (complete main)
Format settings, Endianness : Big
Codec ID : 2000
Duration : 2h 9mn
Bit rate mode : Constant
Bit rate : 448 Kbps
Channel(s) : 6 channels
Channel positions : Front: L C R, Side: L R, LFE
Sampling rate : 48.0 KHz
Compression mode : Lossy
Stream size : 415 MiB (28%)
Alignment : Aligned on interleaves
Interleave, duration : 64 ms (1.54 video frames)
Interleave, preload duration : 192 ms
Title : 00000.track_4352

Скриншоты



Создавать темы 19-Авг-2016 20:42

[Профиль]  [ЛС] 

Powered by GMC

Стаж: 1 год 10 месяцев

Сообщений: 202

Симпатии: 31

mp1988 а когда в HD будеть или хотя бы WEB-DL 1080?

Создавать темы 19-Авг-2016 22:25

[Профиль]  [ЛС] 

Powered by GMC

Стаж: 1 год 10 месяцев

Сообщений: 202

Симпатии: 31

НО огромное СПС Лицуху очень ждал!

Создавать темы 19-Авг-2016 22:26

[Профиль]  [ЛС] 
Показать сообщения:    
Ответить на тему

Текущее время: 23-Авг 05:39

Часовой пояс: UTC + 5



Вы не можете начинать темы
Вы не можете отвечать на сообщения
Вы не можете редактировать свои сообщения
Вы не можете удалять свои сообщения
Вы не можете голосовать в опросах
Вы не можете прикреплять файлы к сообщениям
Вы не можете скачивать файлы