Я стану лучше / Ombline (Стефан Каз / Stéphane Cazes) [2012, Франция, Бельгия, драма, WEB-DLRip] (MVO)

Ответить на тему
 

kat222000 ®

Стаж: 6 лет 4 месяца

Сообщений: 608

Симпатии: 1055

Я стану лучше / Ombline Страна: Франция, Бельгия
Жанр: драма
Год выпуска: 2012
Продолжительность: 01:40:02
Перевод: Профессиональный (многоголосый, закадровый) | Официальный
Субтитры: нет-Режиссер: Стефан Каз / Stéphane Cazes-В ролях: Мелани Тьерри, Натали Бекю, Корина Масьеро, Катрин Сале, Дуня Хдия, Гаэлль Женте, Марта Кортон Винальс, Патрис Буре, Николь Вальберг, Тишу Кане-Описание: За нападение на полицейского двадцатилетняя Омблина приговорена к трем годам заключения. Оказавшись в тюрьме и теряя надежду на светлое будущее, девушка неожиданно узнает, что беременна. Спустя 8 месяцев у нее рождается мальчик Лукас — луч надежды. Но по закону Франции Омблина может быть рядом с сыном только первые полтора года. Не желая мириться с этим, девушка решает убедить судью, что в состоянии воспитывать своего сына после освобождения.- -Возраст: зрителям, достигшим 12 лет-Качество видео: WEB-DLRip
Формат видео: AVI
Видео кодек: XviD
Аудио кодек: AC3
Видео: 720x384 (1.85:1), 24.000 fps, XviD 1.2.1~1 886 kbps avg, 0.284 bit/pixel
Аудио: 48 kHz, AC3 Dolby Digital, 2/0 (L,R) ch, ~192.00 kbps avg (Русский | MVO)-

〤 ОтчетМедиаИнфо 〤

General
Format : AVI
Format/Info : Audio Video Interleave
File size : 1.46 GiB
Duration : 1h 40mn
Overall bit rate : 2 087 Kbps
Writing application : VirtualDubMod 1.5.10.3 | www.virtualdub-fr.org || (build 2550/release)
Writing library : VirtualDubMod build 2550/release
Video
ID : 0
Format : MPEG-4 Visual
Format profile : Advanced [email protected]
Format settings, BVOP : Yes
Format settings, QPel : No
Format settings, GMC : No warppoints
Format settings, Matrix : Default (MPEG)
Codec ID : XVID
Codec ID/Hint : XviD
Duration : 1h 40mn
Bit rate : 1 886 Kbps
Width : 720 pixels
Height : 384 pixels
Display aspect ratio : 1.85:1
Frame rate : 24.000 fps
Color space : YUV
Chroma subsampling : 4:2:0
Bit depth : 8 bits
Scan type : Progressive
Compression mode : Lossy
Bits/(Pixel*Frame) : 0.284
Stream size : 1.32 GiB (90%)
Writing library : XviD 1.2.1 (UTC 2008-12-04)
Audio
ID : 1
Format : AC-3
Format/Info : Audio Coding 3
Mode extension : CM (complete main)
Format settings, Endianness : Big
Codec ID : 2000
Duration : 1h 40mn
Bit rate mode : Constant
Bit rate : 192 Kbps
Channel(s) : 2 channels
Channel positions : Front: L R
Sampling rate : 48.0 KHz
Bit depth : 16 bits
Compression mode : Lossy
Stream size : 137 MiB (9%)
Alignment : Split accross interleaves
Interleave, duration : 42 ms (1.00 video frame)
Interleave, preload duration : 500 ms
-

〤 Скриншоты 〤



© Оформление by kat222000

Создавать темы 23-Авг-2016 23:51

[Профиль]  [ЛС] 
Показать сообщения:    
Ответить на тему

Текущее время: 23-Авг 05:30

Часовой пояс: UTC + 5



Вы не можете начинать темы
Вы не можете отвечать на сообщения
Вы не можете редактировать свои сообщения
Вы не можете удалять свои сообщения
Вы не можете голосовать в опросах
Вы не можете прикреплять файлы к сообщениям
Вы не можете скачивать файлы