Обратная сторона Луны 2 / Сезон: 2 / Серии: 16 из 16 (Александр Котт) [2016, мистический детектив, WEBRip]

Ответить на тему
 

Mamutov ®

Стаж: 4 года 7 месяцев

Сообщений: 255

Симпатии: 144

Обратная сторона Луны 2
Год выпуска: 2016
Производство: Россия, Кинокомпания "Слово" по заказу компании "Среда"
Жанр: мистический детектив
Продолжительность: 00:53:00
Режиссёр: Александр Котт
В ролях: Павел Деревянко, Светлана Смирнова-Марцинкевич, Иван Шибанов, Анатолий Горячев, Андрей Шибаршин, Михаил Грубов, Алёна Константинова, Сергей Карякин, Маргарита Исайкова, Арсений Перель, Олег Алмазов, Сергей Галахов, Ирина Марцинкевич, Пётр Кудряшов, Ирина Нарбекова, Дмитрий Бероев, Евгения Крегжде, Максим Виторган, Михаил Горевой, Юрий Анпилогов, Владимир Носик, Валентин Самохин, Арсений Кудряшов, Александр Сирин, Сергей Цепов, Юрий Нифонтов, Григорий Перель, Алеся Пуховая, Павел Баршак, Мария Смольникова, Евгений Стычкин, Армен Арушанян, Амбарцум Кабанян, Наталья Позднякова, Андрей Леонов, Сергей Петров (II), Владимир Симонов, Ирина Основина, Галина Звягинцева, Дмитрий Муляр, Александр Андриенко, Макс Барских, Дмитрий Горевой, Андрей Душечкин, Владимир Кристовский, Наталия Курдюбова, Максим Литовченко, Евгений Меньшов, Андрей Мерзликин, Евгений Никитин, Ирина Рахманова, Ёла Санько, Анна Слю, Анна Уколова, Игорь Хрипунов, Даниил Шигапов, Екатерина Мельник
Описание: Куда на этот раз забросит судьба Михаила Соловьева? Каким временем или параллельной реальностью продюсеры и авторы 2ого сезона удивят зрителя? Одно можно сказать с уверенностью: в этом сезоне капитан Соловьев еще раз попробует поймать неуловимого рыжего маньяка, прорвавшегося с ним в это время, и постарается найти свое время. Ведь, времена не выбирают, в них живут и умирают.
Качество: WEBRip
Формат: AVI
Видео кодек: XviD
Аудио кодек: AC3
Видео: 720x400 (1.80:1), 25 fps, XviD build 73 ~1448 kbps avg, 0.22 bit/pixel
Аудио: 48 kHz, AC3 Dolby Digital, 2/0 (L,R) ch, ~192.00 kbps avg

MI

General
Complete name : X:\раздачи\Обратная.сторона.Луны.2.2016.WEB-DLRip.RG.Russkie.serialy.&.Files-x\01.Обратная.сторона.Луны.2.2016.WEB-DLRip.RG.Russkie.serialy.&.Files-x.avi
Format : AVI
Format/Info : Audio Video Interleave
File size : 601 MiB
Duration : 52mn 39s
Overall bit rate : 1 596 Kbps
Writing application : VirtualDubMod 1.5.10.3 (build 2550/release)
Writing library : VirtualDubMod build 2550/release
Video
ID : 0
Format : MPEG-4 Visual
Format profile : Advanced [email protected]
Format settings, BVOP : 1
Format settings, QPel : No
Format settings, GMC : No warppoints
Format settings, Matrix : Custom
Codec ID : XVID
Codec ID/Hint : XviD
Duration : 52mn 39s
Bit rate : 1 394 Kbps
Width : 720 pixels
Height : 400 pixels
Display aspect ratio : 16:9
Frame rate : 25.000 fps
Color space : YUV
Chroma subsampling : 4:2:0
Bit depth : 8 bits
Scan type : Progressive
Compression mode : Lossy
Bits/(Pixel*Frame) : 0.194
Stream size : 525 MiB (87%)
Writing library : XviD 73
Audio
ID : 1
Format : AC-3
Format/Info : Audio Coding 3
Mode extension : CM (complete main)
Format settings, Endianness : Big
Codec ID : 2000
Duration : 52mn 39s
Bit rate mode : Constant
Bit rate : 192 Kbps
Channel(s) : 2 channels
Channel positions : Front: L R
Sampling rate : 48.0 KHz
Frame rate : 31.250 fps (1536 spf)
Compression mode : Lossy
Stream size : 72.3 MiB (12%)
Alignment : Split accross interleaves
Interleave, duration : 40 ms (1.00 video frame)
Interleave, preload duration : 500 ms

Скриншоты





Последний раз редактировалось: Mamutov (2016-11-11 17:55), всего редактировалось 3 раз(а)

Создавать темы 27-Авг-2016 01:31

[Профиль]  [ЛС] 

Mamutov ®

Стаж: 4 года 7 месяцев

Сообщений: 255

Симпатии: 144

торрент добавлю к утру

Создавать темы 27-Авг-2016 01:31

[Профиль]  [ЛС] 

Olegajon

Стаж: 7 лет 6 месяцев

Сообщений: 14

Симпатии: 1

Раздача будет?

Создавать темы 29-Авг-2016 10:11

[Профиль]  [ЛС] 

Olegajon

Стаж: 7 лет 6 месяцев

Сообщений: 14

Симпатии: 1

Mamutov, человек обратную сторону луны раздавать будешь?

Создавать темы 02-Сен-2016 11:40

[Профиль]  [ЛС] 
Показать сообщения:    
Ответить на тему

Текущее время: 19-Авг 06:43

Часовой пояс: UTC + 5



Вы не можете начинать темы
Вы не можете отвечать на сообщения
Вы не можете редактировать свои сообщения
Вы не можете удалять свои сообщения
Вы не можете голосовать в опросах
Вы не можете прикреплять файлы к сообщениям
Вы не можете скачивать файлы