Первый мститель: Противостояние / Captain America: Civil War (Энтони Руссо, Джо Руссо) [2016, США, Фантастика, боевик, приключения, HDRip] [iTunes] [Original Eng]

Ответить на тему
 

ruhal ®

Стаж: 2 года 8 месяцев

Сообщений: 1181

Симпатии: 1836

- -Первый мститель: Противостояние / Captain America:Civil War- Страна: США
Жанр: Фантастика, боевик, приключения
Год выпуска: 2016
Продолжительность: 02:27:41-Перевод: Профессиональный (дублированный) iTunes
Cубтитры: нет-Режиссер: Энтони Руссо, Джо Руссо-В ролях: Крис Эванс, Роберт Дауни мл., Скарлетт Йоханссон, Себастьян Стэн, Энтони Маки, Дон Чидл, Джереми Реннер, Чэдвик Боузмэн, Пол Беттани, Элизабет Олсен-Описание: Мстители под руководством Капитана Америки оказываются участниками разрушительного инцидента, имеющего международный масштаб. Эти события заставляют правительство задуматься над тем, чтобы начать регулировать действия всех людей с особыми способностями, введя «Акт о регистрации супергероев», вынуждая их раскрыть свои личности и работать на правительственные службы-Качество видео: HDRip
Формат видео: AVI
Видео: XviD, 23.976 fps,1868 Кбит/с, 720x304
Аудио: Dolby AC3 48000Hz 6ch 384kbps[Rus]
Аудио2: Dolby AC3 48000Hz 6ch 384kbps[Eng]
- [thumb]http://img.tas-ix.net/images/2016/08/30/75d91280fc9...cc6c.jpg[/thumb]
[thumb]http://img.tas-ix.net/images/2016/08/30/2393974bbb1...e022.jpg[/thumb]
[thumb]http://img.tas-ix.net/images/2016/08/30/a38488d45e5...cb08.jpg[/thumb]

MI

General
Complete name : E:\Films\Captain America - Civil War.avi
Format : AVI
Format/Info : Audio Video Interleave
Format profile : OpenDML
File size : 2.74 GiB
Duration : 2h 27mn
Overall bit rate : 2 652 Kbps
Writing application : VirtualDubMod 1.5.10.3 | www.virtualdub-fr.org || (build 2550/release)
Writing library : VirtualDubMod build 2550/release
Video
ID : 0
Format : MPEG-4 Visual
Format profile : Advanced [email protected]
Format settings, BVOP : 2
Format settings, QPel : No
Format settings, GMC : No warppoints
Format settings, Matrix : Default (MPEG)
Codec ID : XVID
Codec ID/Hint : XviD
Duration : 2h 27mn
Bit rate : 1 868 Kbps
Width : 720 pixels
Height : 304 pixels
Display aspect ratio : 2.35:1
Frame rate : 23.976 fps
Color space : YUV
Chroma subsampling : 4:2:0
Bit depth : 8 bits
Scan type : Progressive
Compression mode : Lossy
Bits/(Pixel*Frame) : 0.356
Stream size : 1.93 GiB (70%)
Writing library : XviD 1.2.1 (UTC 2008-12-04)
Audio #1
ID : 1
Format : AC-3
Format/Info : Audio Coding 3
Mode extension : CM (complete main)
Format settings, Endianness : Big
Codec ID : 2000
Duration : 2h 27mn
Bit rate mode : Constant
Bit rate : 384 Kbps
Channel(s) : 6 channels
Channel positions : Front: L C R, Side: L R, LFE
Sampling rate : 48.0 KHz
Bit depth : 16 bits
Compression mode : Lossy
Delay relative to video : 800ms
Stream size : 406 MiB (14%)
Alignment : Split accross interleaves
Interleave, duration : 42 ms (1.00 video frame)
Interleave, preload duration : 500 ms
Audio #2
ID : 2
Format : AC-3
Format/Info : Audio Coding 3
Mode extension : CM (complete main)
Format settings, Endianness : Big
Codec ID : 2000
Duration : 2h 27mn
Bit rate mode : Constant
Bit rate : 384 Kbps
Channel(s) : 6 channels
Channel positions : Front: L C R, Side: L R, LFE
Sampling rate : 48.0 KHz
Bit depth : 16 bits
Compression mode : Lossy
Stream size : 406 MiB (14%)
Alignment : Split accross interleaves
Interleave, duration : 42 ms (1.00 video frame)
Interleave, preload duration : 500 ms

Создавать темы 30-Авг-2016 08:30

[Профиль]  [ЛС] 

ruhal ®

Стаж: 2 года 8 месяцев

Сообщений: 1181

Симпатии: 1836

Почистил тему.
slap_nuts, Maevskaya, Powered by GMC, UzVersace, Weyx, - обсуждайте свои проблемы с провайдерами в чате или в ЛС

Создавать темы 24-Сен-2016 12:27

[Профиль]  [ЛС] 

Тимур Закиров

Стаж: 1 год 6 месяцев

Сообщений: 3

Плохая озвучка некачайте

Комментарий от ruhal


не понял о чем в фильме говорят что ли? полторы тысячи скачали и ни одной претензии, кроме тебя

Создавать темы 05-Дек-2016 16:07

[Профиль]  [ЛС] 

Малыш

Стаж: 1 год 3 месяца

Сообщений: 10

Симпатии: 1

на английском что-ли

Комментарий от ruhal


звуковую дорожку переключи - будет русский

Создавать темы 05-Янв-2017 21:29

[Профиль]  [ЛС] 

Малыш

Стаж: 1 год 3 месяца

Сообщений: 10

Симпатии: 1

народ источник откуда как переключить

Создавать темы 05-Янв-2017 21:32

[Профиль]  [ЛС] 

Малыш

Стаж: 1 год 3 месяца

Сообщений: 10

Симпатии: 1

ruhal, на фоксе я смотрю молодчик

Создавать темы 05-Янв-2017 21:35

[Профиль]  [ЛС] 

Малыш

Стаж: 1 год 3 месяца

Сообщений: 10

Симпатии: 1

народ хотел спросить неоспоримый-4 вышел или нет я искал не нашел может кто знает источник

Создавать темы 12-Янв-2017 16:11

[Профиль]  [ЛС] 

thomasz

Стаж: 4 года 5 месяцев

Сообщений: 40

Симпатии: 4

детский фильм

Создавать темы 12-Янв-2017 17:29

[Профиль]  [ЛС] 

Ума

Стаж: 5 лет 9 месяцев

Сообщений: 15

5 ok ok .....

Создавать темы 19-Янв-2017 21:46

[Профиль]  [ЛС] 
Показать сообщения:    
Ответить на тему

Текущее время: 14-Дек 22:01

Часовой пояс: UTC + 5



Вы не можете начинать темы
Вы не можете отвечать на сообщения
Вы не можете редактировать свои сообщения
Вы не можете удалять свои сообщения
Вы не можете голосовать в опросах
Вы не можете прикреплять файлы к сообщениям
Вы не можете скачивать файлы