Убойная стрижка / The Legend of Barney Thomson (Роберт Карлайл) [2015, Канада, Великобритания, США, комедия, криминал, BDRip] (Dub : [iTunes]) (Original Eng)

Ответить на тему
 

ziyod ®

Стаж: 7 лет 7 месяцев

Сообщений: 367

Симпатии: 60

Убойная стрижка / The Legend of Barney Thomson
Страна: Канада, Великобритания, США
Жанр: комедия, криминал
Год выпуска: 2015
Продолжительность: 01:32:04
Перевод: Профессиональный (дублированный) Доп. инфо о переводе [iTunes]
Cубтитры: нет
Оригинальная аудиодорожка: английский
Режиссер: Роберт Карлайл
В ролях: Роберт Карлайл, Эмма Томпсон, Рэй Уинстон, Том Кортни, Джеймс Космо, Эшли Дженсен, Мартин Компстон, Кевин Гатри, Стивен МакКоул, Брайан Петтифер
Описание: Барни Томсон — отмороженный парикмахер-неудачник из Глазго, чья жизнь идет по накатанной колее. Но все круто меняется, когда Барни случайно закалывает ножницами своего босса. Жизнь парикмахера разом превращается в хаос, но максимального безумия события достигают, когда в игру вступает невозмутимая мамаша Барни. За пропавшим парикмахером на скорости 100 трупов/час гонятся все от полиции до криминальных авторитетов. Может, это неслучайно, что оставляемые перепуганным Барни следы подозрительно смахивают на почерк орудующего в городе маньяка-расчленителя? Неожиданно для себя Барни оказывается в центре жаркого замеса, о котором он и мечтать не смел. Но сможет ли Барни выйти сухим из воды и сделать свое имя легендарным?
Качество видео: BDRip
Формат видео: MKV
Видео: MPEG-4 AVC, 3567 kb/s, 1280x536
Аудио: AC3, 384 kb/s (6 ch)
Аудио 2: English: DTS, 1510 kb/s (6 ch)

MediaInfo

General
Unique ID : 226647841001399334210634109391230563765 (0xAA82C9504CCEB8FFBEF6663690D175B5)
Complete name : D:\Я\Ybojnaay.strizhka.2O15.D.BDRip.720p.mkv
Format : Matroska
Format version : Version 4 / Version 2
File size : 3.58 GiB
Duration : 1h 32mn
Overall bit rate : 5 567 Kbps
Encoded date : UTC 2016-07-20 09:36:43
Writing application : mkvmerge v8.3.0 ('Over the Horizon') 64bit
Writing library : libebml v1.3.1 + libmatroska v1.4.2
DURATION : 01:32:03.968000000
NUMBER_OF_FRAMES : 172624
NUMBER_OF_BYTES : 265150464
_STATISTICS_WRITING_APP : mkvmerge v8.3.0 ('Over the Horizon') 64bit
_STATISTICS_WRITING_DATE_UT : 2016-07-20 09:36:43
_STATISTICS_TAGS : BPS DURATION NUMBER_OF_FRAMES NUMBER_OF_BYTES
Video
ID : 1
Format : AVC
Format/Info : Advanced Video Codec
Format profile : [email protected]
Format settings, CABAC : Yes
Format settings, ReFrames : 5 frames
Codec ID : V_MPEG4/ISO/AVC
Duration : 1h 32mn
Bit rate : 3 563 Kbps
Width : 1 280 pixels
Height : 536 pixels
Display aspect ratio : 2.40:1
Frame rate mode : Constant
Frame rate : 25.000 fps
Color space : YUV
Chroma subsampling : 4:2:0
Bit depth : 8 bits
Scan type : Progressive
Bits/(Pixel*Frame) : 0.208
Stream size : 2.29 GiB (64%)
Writing library : x264 core 148 r2692 64f4e24
Language : English
Default : Yes
Forced : No
DURATION : 01:32:04.000000000
NUMBER_OF_FRAMES : 138100
NUMBER_OF_BYTES : 2535070228
_STATISTICS_WRITING_APP : mkvmerge v8.3.0 ('Over the Horizon') 64bit
_STATISTICS_WRITING_DATE_UT : 2016-07-20 09:36:43
_STATISTICS_TAGS : BPS DURATION NUMBER_OF_FRAMES NUMBER_OF_BYTES
Audio #1
ID : 2
Format : AC-3
Format/Info : Audio Coding 3
Mode extension : CM (complete main)
Format settings, Endianness : Big
Codec ID : A_AC3
Duration : 1h 32mn
Bit rate mode : Constant
Bit rate : 384 Kbps
Channel(s) : 6 channels
Channel positions : Front: L C R, Side: L R, LFE
Sampling rate : 48.0 KHz
Compression mode : Lossy
Stream size : 253 MiB (7%)
Language : Russian
Default : Yes
Forced : No
Audio #2
ID : 3
Format : DTS
Format/Info : Digital Theater Systems
Mode : 16
Format settings, Endianness : Big
Codec ID : A_DTS
Duration : 1h 32mn
Bit rate mode : Constant
Bit rate : 1 509 Kbps
Channel(s) : 6 channels
Channel positions : Front: L C R, Side: L R, LFE
Sampling rate : 48.0 KHz
Bit depth : 16 bits
Compression mode : Lossy
Stream size : 994 MiB (27%)
Title : Eng. DTS 1510 Kbps
Language : English
Default : No
Forced : No
Menu
00:00:00.000 : en:00:00:00.000
00:06:20.240 : en:00:06:20.240
00:12:30.320 : en:00:12:30.320
00:20:56.080 : en:00:20:56.080
00:30:56.560 : en:00:30:56.560
00:39:30.720 : en:00:39:30.720
00:54:08.160 : en:00:54:08.160
01:02:34.240 : en:01:02:34.240
01:12:09.560 : en:01:12:09.560
01:20:39.320 : en:01:20:39.320
01:27:38.720 : en:01:27:38.720
01:28:59.800 : en:01:28:59.800

Скриншоты


Создавать темы 30-Авг-2016 14:46

[Профиль]  [ЛС] 

Топик был перенесен из форума Зарубежное кино в форум HD-AVC
ruhal

Создавать темы 30-Авг-2016 14:48

 

Топик был перенесен из форума HD-AVC в форум HD-AVC
ruhal

Создавать темы 30-Авг-2016 14:49

 
Показать сообщения:    
Ответить на тему

Текущее время: 20-Окт 03:07

Часовой пояс: UTC + 5



Вы не можете начинать темы
Вы не можете отвечать на сообщения
Вы не можете редактировать свои сообщения
Вы не можете удалять свои сообщения
Вы не можете голосовать в опросах
Вы не можете прикреплять файлы к сообщениям
Вы не можете скачивать файлы