Новости с планеты Марс / Des nouvelles de la planete Mars (Доминик Молль) [2016, Франция, Бельгия, Комедия, WEB-DL] (Dub : iTunes)

Ответить на тему
 

bbk ®

Стаж: 6 лет 9 месяцев

Сообщений: 435

Симпатии: 479

Новости с планеты Марс / Des nouvelles de la planete Mars
Страна: Франция, Бельгия
Жанр: Комедия
Год выпуска: 2016
Продолжительность: 01:41:06
Перевод: Профессиональный (дублированный) | iTunes
Режиссер: Доминик Молль
В ролях: Франсуа Дамиенс, Венсан Макень, Верле Батенс, Жанн Гитте, Том Ривуар, Мишель Омон, Катрин Сами, Филипп Лоденбаш, Оливия Коте, Леа Дрюкер
Описание: Филипп Марс работает айтишником, мечтает о космосе, и его все достали! Дети считают лузером, сестра — занудой, и даже призраки умерших родителей подшучивают над ним. Все меняется с появлением смешного и немного опасного коллеги Жерома. Вместе со своей пассией, сбежавшей из психиатрической клиники, они перевернут дом и жизнь Филиппа с ног на голову, заразят его романтичным бредом и заставят впервые в жизни совершить настоящий поступок — похлеще полета на Марс.
 
Качество видео: WEB-DL
Формат видео: MKV
Видео: AVC/H.264, 1920x802, 4492 Кбит/с
Аудио: AC3, 6 ch, 384 Кбит/с

MediaInfo

Novosti.s.planety.Marc.2016.D.WEB-DL.1080p.mkv
Format : Matroska
Format version : Version 4 / Version 2
File size : 3.51 GiB
Duration : 1 h 41 min
Overall bit rate : 4 975 kb/s
Encoded date : UTC 2016-08-24 07:36:11
Writing application : mkvmerge v6.5.0 ('Isn't she lovely') built on Oct 20 2013 12:50:05
Writing library : libebml v1.3.0 + libmatroska v1.4.1
Video
ID : 1
Format : AVC
Format/Info : Advanced Video Codec
Format profile : [email protected]
Format settings, CABAC : Yes
Format settings, ReFrames : 5 frames
Codec ID : V_MPEG4/ISO/AVC
Duration : 1 h 41 min
Bit rate : 4 492 kb/s
Width : 1 920 pixels
Height : 802 pixels
Display aspect ratio : 2.40:1
Frame rate mode : Constant
Frame rate : 24.000 FPS
Color space : YUV
Chroma subsampling : 4:2:0
Bit depth : 8 bits
Scan type : Progressive
Bits/(Pixel*Frame) : 0.122
Stream size : 3.17 GiB (90%)
Language : English
Default : Yes
Forced : No
Color range : Limited
Color primaries : BT.709
Transfer characteristics : BT.709
Matrix coefficients : BT.709
Audio
ID : 2
Format : AC-3
Format/Info : Audio Coding 3
Mode extension : CM (complete main)
Format settings, Endianness : Big
Codec ID : A_AC3
Duration : 1 h 41 min
Bit rate mode : Constant
Bit rate : 384 kb/s
Channel(s) : 6 channels
Channel positions : Front: L C R, Side: L R, LFE
Sampling rate : 48.0 kHz
Frame rate : 31.250 FPS (1536 spf)
Compression mode : Lossy
Stream size : 278 MiB (8%)
Language : Russian
Default : Yes
Forced : No
Menu
00:00:00.000 : en:Глава 1
00:05:42.333 : en:Глава 2
00:11:11.124 : en:Глава 3
00:17:06.582 : en:Глава 4
00:22:39.290 : en:Глава 5
00:30:24.123 : en:Глава 6
00:36:02.414 : en:Глава 7
00:41:44.455 : en:Глава 8
00:47:31.580 : en:Глава 9
00:54:12.663 : en:Глава 10
00:59:49.204 : en:Глава 11
01:05:36.412 : en:Глава 12
01:12:24.537 : en:Глава 13
01:18:27.495 : en:Глава 14
01:23:57.661 : en:Глава 15
01:30:04.952 : en:Глава 16

Скриншоты

Создавать темы 06-Сен-2016 09:17

[Профиль]  [ЛС] 

teddi

Стаж: 1 год 4 месяца

Сообщений: 87

Симпатии: 46

Привет, а что не качается, никто не в курсе?

Создавать темы 08-Сен-2016 14:00

[Профиль]  [ЛС] 

Powered by GMC

Стаж: 1 год 10 месяцев

Сообщений: 202

Симпатии: 31

981620Привет, а что не качается, никто не в курсе?
Трудно подключить к сидам! у них какоето странное Айпи! я тоже жду только через 5 или 10 минут соединлса! странно

Создавать темы 08-Сен-2016 14:11

[Профиль]  [ЛС] 

teddi

Стаж: 1 год 4 месяца

Сообщений: 87

Симпатии: 46

Powered by GMC,
Спасибо

Создавать темы 09-Сен-2016 01:36

[Профиль]  [ЛС] 
Показать сообщения:    
Ответить на тему

Текущее время: 22-Авг 23:44

Часовой пояс: UTC + 5



Вы не можете начинать темы
Вы не можете отвечать на сообщения
Вы не можете редактировать свои сообщения
Вы не можете удалять свои сообщения
Вы не можете голосовать в опросах
Вы не можете прикреплять файлы к сообщениям
Вы не можете скачивать файлы