Иллюзия обмана 2 / Now You See Me 2 (Джон М. Чу) [2016, США, Китай, Великобритания, Канада, боевик, триллер, комедия, криминал, детектив, прик, BDRip] (Dub) (Sub Eng + Original Eng)

Ответить на тему
 

dasar ®

Стаж: 4 года 7 месяцев

Сообщений: 26

Симпатии: 29

Иллюзия обмана 2 / Now You See Me 2
Страна: США, Китай, Великобритания, Канада
Жанр: боевик, триллер, комедия, криминал, детектив, прик
Год выпуска: 2016
Продолжительность: 02:09
Перевод: Профессиональный (дублированный)
Cубтитры: английские
Оригинальная аудиодорожка: английский
Режиссер: Джон М. Чу
В ролях: Лиззи Каплан, Дэниэл Рэдклифф, Дэйв Франко, Марк Руффало, Джесси Айзенберг, Морган Фриман, Вуди Харрельсон, Майкл Кейн
Описание: «Четыре всадника», команда лучших иллюзионистов мира, снова в сборе! Их «магия» стала еще совершеннее, а враги — опаснее. На сей раз им предстоит спасти свою репутацию и вывести на чистую воду жестокого техномагната…
Качество видео: BDRip
Формат видео: MP4
Видео: H.264, 1920x1072, 16:9, 24 fps, 2 050 Kbps
Аудио: AAC LC, 48 KHz, 128 Kbps, 5.1, Русская
Аудио 2: AAC LC, 48 KHz, 122 Kbps, Стерео, Английская
Формат субтитров: softsub (SRT)

MediaInfo

General
Complete name : Now.You.See.Me.2.2016.1080p.YIFY.mp4
Format : MPEG-4
Format profile : Base Media
Codec ID : isom (isom/iso2/avc1/mp41)
File size : 2.09 GiB
Duration : 2h 9mn
Overall bit rate : 2 308 Kbps
Movie name : Now You See Me 2
Encoded date : UTC 1904-01-01 00:00:00
Tagged date : UTC 1904-01-01 00:00:00
Writing application : Lavf56.40.101
Video
ID : 1
Format : AVC
Format/Info : Advanced Video Codec
Format profile : [email protected]
Format settings, CABAC : Yes
Format settings, ReFrames : 4 frames
Codec ID : avc1
Codec ID/Info : Advanced Video Coding
Duration : 2h 9mn
Bit rate : 2 050 Kbps
Width : 1 920 pixels
Height : 1 072 pixels
Display aspect ratio : 16:9
Frame rate mode : Constant
Frame rate : 24.000 fps
Color space : YUV
Chroma subsampling : 4:2:0
Bit depth : 8 bits
Scan type : Progressive
Bits/(Pixel*Frame) : 0.041
Stream size : 1.85 GiB (89%)
Writing library : x264 core 148
Encoding settings : cabac=1 / ref=4 / deblock=1:-1:-1 / analyse=0x3:0x133 / me=umh / subme=9 / psy=1 / psy_rd=1.00:0.15 / mixed_ref=1 / me_range=24 / chroma_me=1 / trellis=2 / 8x8dct=1 / cqm=0 / deadzone=21,11 / fast_pskip=0 / chroma_qp_offset=-3 / threads=12 / lookahead_threads=1 / sliced_threads=0 / nr=0 / decimate=1 / interlaced=0 / bluray_compat=0 / constrained_intra=0 / bframes=3 / b_pyramid=2 / b_adapt=2 / b_bias=0 / direct=3 / weightb=1 / open_gop=0 / weightp=2 / keyint=250 / keyint_min=23 / scenecut=40 / intra_refresh=0 / rc_lookahead=60 / rc=2pass / mbtree=1 / bitrate=2050 / ratetol=1.0 / qcomp=0.60 / qpmin=0 / qpmax=69 / qpstep=4 / cplxblur=20.0 / qblur=0.5 / vbv_maxrate=31250 / vbv_bufsize=31250 / nal_hrd=none / filler=0 / ip_ratio=1.40 / aq=1:1.00
Encoded date : UTC 1904-01-01 00:00:00
Tagged date : UTC 1904-01-01 00:00:00
Audio #1
ID : 2
Format : AAC
Format/Info : Advanced Audio Codec
Format profile : LC
Codec ID : 40
Duration : 2h 9mn
Duration_LastFrame : -11ms
Bit rate mode : Constant
Bit rate : 128 Kbps
Channel(s) : 2 channels
Channel(s)_Original : 6 channels
Channel positions : Front: L C R, Side: L R, LFE
Sampling rate : 48.0 KHz
Frame rate : 46.875 fps (1024 spf)
Compression mode : Lossy
Stream size : 119 MiB (6%)
Title : Russian
Language : Russian
Default : No
Alternate group : 1
Encoded date : UTC 1904-01-01 00:00:00
Tagged date : UTC 1904-01-01 00:00:00
Audio #2
ID : 3
Format : AAC
Format/Info : Advanced Audio Codec
Format profile : LC
Codec ID : 40
Duration : 2h 9mn
Duration_LastFrame : 32ms
Bit rate mode : Constant
Bit rate : 122 Kbps
Channel(s) : 2 channels
Channel positions : Front: L R
Sampling rate : 48.0 KHz
Frame rate : 46.875 fps (1024 spf)
Compression mode : Lossy
Stream size : 112 MiB (5%)
Title : English
Language : English
Default : Yes
Alternate group : 1
Encoded date : UTC 1904-01-01 00:00:00
Tagged date : UTC 1904-01-01 00:00:00

Скриншоты




Создавать темы 06-Сен-2016 11:57

[Профиль]  [ЛС] 

dasar ®

Стаж: 4 года 7 месяцев

Сообщений: 26

Симпатии: 29

Аудио дорожка по умолчанию английская может открываться, переключается на русскую в настройках плеера.

Создавать темы 06-Сен-2016 15:31

[Профиль]  [ЛС] 

Топик был перенесен из форума Фильмы за 2016 в форум Видео для мобильных устройств
ruhal

Создавать темы 06-Сен-2016 17:48

 

Топик был перенесен из форума Видео для мобильных устройств в форум Фильмы за 2016
Serj1405

Создавать темы 07-Сен-2016 13:07

 

Топик был перенесен из форума Фильмы за 2016 в форум HD-AVC
ruhal

Создавать темы 07-Сен-2016 17:44

 
Показать сообщения:    
Ответить на тему

Текущее время: 22-Авг 23:47

Часовой пояс: UTC + 5



Вы не можете начинать темы
Вы не можете отвечать на сообщения
Вы не можете редактировать свои сообщения
Вы не можете удалять свои сообщения
Вы не можете голосовать в опросах
Вы не можете прикреплять файлы к сообщениям
Вы не можете скачивать файлы