В лучах солнца (2015) WEBRip [H.264] [MP4|626x360]

Ответить на тему
 

bbk ®

Стаж: 6 лет 10 месяцев

Сообщений: 435

Симпатии: 479

В лучах солнца (2015) WEBRip
Производство: Чехия, Россия, Германия, Латвия, Северная Корея
Жанр: Документальный
Режиссер Виталий Манский
Актеры: Ли Джин-ми, Ю-ён, Хе-ён, О-гён, Чхве Сон-мин, Лим Су-ён, Су-ён,
Описание:
Документальный фильм о жизни восьмилетней школьницы Джин-ми в Пхеньяне, столице КНДР, снятый российским режиссером по сценарию, написанному северокорейскими товарищами.
Продолжительность: 01:29:57
Качество видео: WEBRip
Перевод: Одноголосый закадровый, любительский
Видео: AVC/H.264, 626x360, ~323 kbps
Аудио: AAC, 2 ch, 96 kbps

Mediainfo:

Complete name                            : «В лучах солнца» фильм Виталия Манского.mp4
Format                                   : MPEG-4
Format profile                           : Base Media / Version 2
Codec ID                                 : mp42 (isom/mp42)
File size                                : 271 MiB
Duration                                 : 1 h 29 min
Overall bit rate mode                    : Variable
Overall bit rate                         : 422 kb/s
Encoded date                             : UTC 2016-09-01 09:42:13
Tagged date                              : UTC 2016-09-01 09:42:13
gsst                                     : 0
gstd                                     : 5397385
Video
ID                                       : 1
Format                                   : AVC
Format/Info                              : Advanced Video Codec
Format profile                           : [email protected]
Format settings, CABAC                   : No
Format settings, ReFrames                : 1 frame
Codec ID                                 : avc1
Codec ID/Info                            : Advanced Video Coding
Duration                                 : 1 h 29 min
Bit rate                                 : 323 kb/s
Maximum bit rate                         : 1 346 kb/s
Width                                    : 626 pixels
Height                                   : 360 pixels
Display aspect ratio                     : 1.739
Frame rate mode                          : Constant
Frame rate                               : 24.870 FPS
Color space                              : YUV
Chroma subsampling                       : 4:2:0
Bit depth                                : 8 bits
Scan type                                : Progressive
Bits/(Pixel*Frame)                       : 0.058
Stream size                              : 208 MiB (77%)
Tagged date                              : UTC 2016-09-01 09:42:50
Audio
ID                                       : 2
Format                                   : AAC
Format/Info                              : Advanced Audio Codec
Format profile                           : LC
Codec ID                                 : 40
Duration                                 : 1 h 29 min
Bit rate mode                            : Variable
Bit rate                                 : 96.0 kb/s
Maximum bit rate                         : 103 kb/s
Channel(s)                               : 2 channels
Channel positions                        : Front: L R
Sampling rate                            : 44.1 kHz
Frame rate                               : 43.066 FPS (1024 spf)
Compression mode                         : Lossy
Stream size                              : 61.8 MiB (23%)
Title                                    : IsoMedia File Produced by Google, 5-11-2011
Language                                 : English
Encoded date                             : UTC 2016-09-01 09:42:34
Tagged date                              : UTC 2016-09-01 09:42:50

Скриншоты:

Создавать темы 08-Сен-2016 08:01

[Профиль]  [ЛС] 
Показать сообщения:    
Ответить на тему

Текущее время: 20-Сен 14:28

Часовой пояс: UTC + 5



Вы не можете начинать темы
Вы не можете отвечать на сообщения
Вы не можете редактировать свои сообщения
Вы не можете удалять свои сообщения
Вы не можете голосовать в опросах
Вы не можете прикреплять файлы к сообщениям
Вы не можете скачивать файлы