Люди Икс: Апокалипсис / X-Men: Apocalypse (Брайан Сингер) [2016, США, фантастика, фэнтези, боевик, приключения, HDRip] [Лицензия]

Ответить на тему
 

ruhal ®

Стаж: 2 года 8 месяцев

Сообщений: 1181

Симпатии: 1836

- -Люди Икс: Апокалипсис / X-Men: Apocalypse- Страна: США
Жанр: фантастика, фэнтези, боевик, приключения
Год выпуска: 2016
Продолжительность: 02:24:14-Перевод: Профессиональный (дублированный) [Лицензия]
Cубтитры: нет-Режиссер: Брайан Сингер-В ролях: Джеймс МакЭвой, Майкл Фассбендер, Дженнифер Лоуренс, Николас Холт, Оскар Айзек, Роуз Бирн, Эван Питерс, Джош Хелман, Софи Тернер, Тай Шеридан-Описание: События «Дней Минувшего Будущего» оказали колоссальное влияние на мир, где мутанты и люди борются за свое место под Солнцем. В это нелегкое время Людям Икс предстоит столкнуться со своим самым опасным противником - древним мутантом Апокалипсисом, существом, схватка с которым может стать последней не только для мутантов, но и в принципе для всего человечества. В поисках способа победы над неуязвимым и бессмертным монстром Людям Икс предстоит узнать больше о происхождении своего вида. Но Апокалипсис неимоверно силен, и вероятность победы все уменьшается, ведь он твердо убежден, что только сильнейшие имеют право на выживание...-Качество видео: HDRip
Формат видео: AVI
Видео: Xvid 720x304 23.976fps
Аудио: Dolby AC3 48000Hz 6ch 384kbps
-

MediaInfo

General
Format : AVI
Format/Info : Audio Video Interleave
File size : 1.47 GiB
Duration : 2h 23mn
Overall bit rate : 1 466 Kbps
Writing application : VirtualDubMod 1.5.10.3 | www.virtualdub-fr.org || (build 2550/release)
Writing library : VirtualDubMod build 2550/release
Video
ID : 0
Format : MPEG-4 Visual
Format profile : Advanced [email protected]
Format settings, BVOP : 2
Format settings, QPel : No
Format settings, GMC : No warppoints
Format settings, Matrix : Default (MPEG)
Codec ID : XVID
Codec ID/Hint : XviD
Duration : 2h 23mn
Bit rate : 1 015 Kbps
Width : 720 pixels
Height : 304 pixels
Display aspect ratio : 2.35:1
Frame rate : 23.976 fps
Color space : YUV
Chroma subsampling : 4:2:0
Bit depth : 8 bits
Scan type : Progressive
Compression mode : Lossy
Bits/(Pixel*Frame) : 0.193
Stream size : 1.02 GiB (69%)
Writing library : XviD 1.2.1 (UTC 2008-12-04)
Audio
ID : 1
Format : AC-3
Format/Info : Audio Coding 3
Mode extension : CM (complete main)
Format settings, Endianness : Big
Codec ID : 2000
Duration : 2h 23mn
Bit rate mode : Constant
Bit rate : 384 Kbps
Channel(s) : 6 channels
Channel positions : Front: L C R, Side: L R, LFE
Sampling rate : 48.0 KHz
Bit depth : 16 bits
Compression mode : Lossy
Delay relative to video : 1s 0ms
Stream size : 395 MiB (26%)
Alignment : Split accross interleaves

Скриншот c названием фильма

Скриншоты



Создавать темы 09-Сен-2016 06:27

[Профиль]  [ЛС] 

Mr.Rasul 7482

Стаж: 1 год 8 месяцев

Сообщений: 2

Симпатии: 3

есть формате 1080р

Создавать темы 09-Сен-2016 09:16

[Профиль]  [ЛС] 

ruhal ®

Стаж: 2 года 8 месяцев

Сообщений: 1181

Симпатии: 1836

983651есть формате 1080р
1080p

Создавать темы 09-Сен-2016 18:25

[Профиль]  [ЛС] 

Mr.Rasul 7482

Стаж: 1 год 8 месяцев

Сообщений: 2

Симпатии: 3

983668
983651есть формате 1080р
1080p
спосибо

Создавать темы 10-Сен-2016 16:06

[Профиль]  [ЛС] 

Shoxruxxoja

Стаж: 4 года

Сообщений: 20

Симпатии: 5

мстители и бэтмены с суперменами отдыхают, шикарный фильм

Создавать темы 11-Сен-2016 19:01

[Профиль]  [ЛС] 

pirat

Стаж: 5 лет 7 месяцев

Сообщений: 216

Симпатии: 63

эффекты ничего.
но все равно росомаха бы украсил картину чуток получше, нежели молодняк.

Создавать темы 14-Сен-2016 22:47

[Профиль]  [ЛС] 

BlackStar

Стаж: 7 лет 6 месяцев

Сообщений: 158

Симпатии: 1

Фильм отличный !!

Создавать темы 25-Сен-2016 20:33

[Профиль]  [ЛС] 
Показать сообщения:    
Ответить на тему

Текущее время: 16-Дек 21:32

Часовой пояс: UTC + 5



Вы не можете начинать темы
Вы не можете отвечать на сообщения
Вы не можете редактировать свои сообщения
Вы не можете удалять свои сообщения
Вы не можете голосовать в опросах
Вы не можете прикреплять файлы к сообщениям
Вы не можете скачивать файлы