Судья. Общество, у которого нет шансов / the Judge (2015) WEB-DLRip [H.264] [MP4|1920x816]

Ответить на тему
 

bbk ®

Стаж: 6 лет 9 месяцев

Сообщений: 435

Симпатии: 479

Судья. Общество, у которого нет шансов / the Judge (2015)- Производство: Россия
Жанр: Короткометражный, Драма
Режиссер: Ийли Нэйа
Актеры: Пётр Пасин, Ийли Нэйа, Дмитрий Андросов, Евгений Дементьев, Светлана Демьянова, Анна Козина, Андрей Трофимов, Екатерина Уюткина, Роман Энглерт, Анастасия Иоланта, Андрей Шарыгин, Сергей Мотовилов, Андрей Забебенин и др.
Описание:
Фильм про современное российское общество, про вседозволенность должностных лиц, про двойные стандарты, про коррупцию, про продажных судей, про полицейский беспредел и про того, кто решился бросить всему этому вызов. Фильм про то что можно делать, а чего нельзя. История основана на реальных событиях. Все персонажи, числа и даты заменены.
 
Возраст: 18+ (зрителям, достигшим 18 лет. запрещено для детей)
Продолжительность: 00:22:27
Качество видео: WEB-DLRip 1920p
Видео: AVC/H.264, 1920x816, ~15,6 Mbps
Аудио: AAC, 2 ch, 317 Kbps, VBR

Mediainfo:

Общее
Формат : MPEG-4
Профиль формата : Base Media / Version 2
Идентификатор кодека : mp42 (mp42/mp41)
Размер файла : 2,50 Гбайт
Продолжительность : 22 м.
Режим общего битрейта : Переменный
Общий поток : 16,0 Мбит/сек
Дата кодирования : UTC 2016-08-25 03:30:25
Дата пометки : UTC 2016-08-25 03:37:37
©TIM : 00:00:00:00
©TSC : 24000
©TSZ : 1001
Видео
Идентификатор : 1
Формат : AVC
Формат/Информация : Advanced Video Codec
Профиль формата : [email protected]
Параметр CABAC формата : Да
Параметр ReFrames формата : 3 кадра
Идентификатор кодека : avc1
Идентификатор кодека/Информация : Advanced Video Coding
Продолжительность : 22 м.
Продолжительность оригинала : 22 м.
Вид битрейта : Переменный
Битрейт : 15,6 Мбит/сек
Максимальный битрейт : 17,9 Мбит/сек
Ширина : 1920 пикселей
Высота : 816 пикселей
Соотношение сторон : 2,35:1
Режим частоты кадров : Постоянный
Частота кадров : 23,976 (24000/1001) кадра/сек
Стандарт вещания : NTSC
Цветовое пространство : YUV
Субдискретизация насыщенности : 4:2:0
Битовая глубина : 8 бит
Тип развёртки : Прогрессивная
Бит/(Пиксели*Кадры) : 0.416
Размер потока : 2,45 Гбайт (98%)
Размер потока оригинала : 2,45 Гбайт (98%)
Язык : English
Дата кодирования : UTC 2016-08-25 03:30:25
Дата пометки : UTC 2016-08-25 03:30:25
Цветовой диапазон : Limited
Аудио
Идентификатор : 2
Формат : AAC
Формат/Информация : Advanced Audio Codec
Профиль формата : LC
Идентификатор кодека : 40
Продолжительность : 22 м.
Продолжительность оригинала : 22 м.
Вид битрейта : Переменный
Битрейт : 317 Кбит/сек
Максимальный битрейт : 411 Кбит/сек
Каналы : 2 канала
Расположение каналов : Front: L R
Частота : 48,0 КГц
Частота кадров : 46,875 кадров/сек (1024 spf)
Метод сжатия : С потерями
Размер потока : 51,0 Мбайт (2%)
Размер потока оригинала : 51,0 Мбайт (2%)
Язык : English
Дата кодирования : UTC 2016-08-25 03:30:25
Дата пометки : UTC 2016-08-25 03:30:25

Скриншоты:

Создавать темы 09-Сен-2016 11:54

[Профиль]  [ЛС] 
Показать сообщения:    
Ответить на тему

Текущее время: 20-Авг 01:40

Часовой пояс: UTC + 5



Вы не можете начинать темы
Вы не можете отвечать на сообщения
Вы не можете редактировать свои сообщения
Вы не можете удалять свои сообщения
Вы не можете голосовать в опросах
Вы не можете прикреплять файлы к сообщениям
Вы не можете скачивать файлы