СССР - Канада. Суперсерия 1974 года [1974 г., Хоккей, DVDRip]

Ответить на тему
 

beshka666 ®

Стаж: 1 год 11 месяцев

Сообщений: 34

Симпатии: 20

СССР - Канада. Суперсерия 1974 года [1974 г., Хоккей, DVDRip]
Год выпуска: 1974
Вид спорта: Хоккей
Участники:
СССР (тренер — Борис Кулагин): вратари — Владислав Третьяк, Александр Сидельников; защитники — Александр Гусев, Владимир Лутченко, Валерий Васильев, Виктор Кузнецов, Геннадий Цыганков, Юрий Ляпкин, Юрий Тюрин, Юрий Шаталов, Александр Филиппов, Александр Сапёлкин, Юрий Фёдоров; нападающие — Вячеслав Анисин, Валерий Харламов, Юрий Лебедев, Александр Мальцев, Владимир Шадрин, Александр Якушев, Александр Бодунов, Борис Михайлов, Владимир Петров, Сергей Капустин, Сергей Котов, Виктор Шалимов, Владимир Викулов, Александр Волчков, Константин Климов, Владимир Попов.
Канада (тренер — Билли Харрис): вратари — Джерри Чиверс, Дон Маклеод; защитники — Жан-Клод Трамбле, Пэт Стэплтон, Рик Лей, Пол Шмир, Рик Смит, Брэд Селвуд, Марти Хоу, Эл Хэмилтон; нападающие — Бобби Халл, Ральф Бэкстром, Андрэ Лакруа, Серж Бернье, Горди Хоу, Пол Хендерсон, Джон Маккензи, Марк Хоу, Режан Уль, Фрэнк Маховлич, Майк Уолтон, Марк Тардиф, Брюс Макгрегор, Том Уэбстер, Джим Харрисон.
Продолжительность: 12:54:56
Комментарий: Профессиональный (двухголосый)
Комментаторы: О.Пирожков, Ю.Розанов (Канал НТВ +)
Описание: В 1974-75 гг ВХА, где главными “звездами” были Бобби Халл и нестареющий Горди Хоу, еще более подняло свой интерес среди болельщиков. Во многом этому сопутствовала серия сборной лиги против сборной СССР и хотя профессиона- лы ВХА выиграли всего одну игру, они получили большую прессу.
В начале 70-х годов, во времена канадо-советских ледовых войн, о принципах "Фэйр-плей" говорить было не принято. Потому никого не удивил скандал, разгоревшийся в 1974 году по ходу второй суперсерии Канада – СССР. Североамериканцев тогда представляли звезды Всемирной хоккейной ассоциации (ВХА) во главе с Горди Хоу и Бобби Халлом. А за нашу страну бились почти те же, кто трагически уступил Канаде на флажке два года назад. Обеим сторонам поражение было смерти подобно. Ведь ВХА тогда конкурировала с НХЛ, а генсек КПСС Леонид Брежнев «по многочисленным просьбам трудящихся» лично потребовал вендетты в схватке с профи.
Допольнительно:
Игра №1. 17.09.1974. г. Квебек. Арена "Colisée de Québec"
Игра №2. 19.09.1974. Торонто. Арена "Maple Leafs Garden"
Игра №3. 21.09.1974. Виннипег
Игра №4. 23.09.1974. Ванкувер
Игра №5. 01.10.1974. Москва. "Лужники". (Oбзор)
Игра №6. 03.10.1974. Москва. "Лужники". (Oбзор)
Игра №7. 05.10.1974. Москва. "Лужники". (2-й и 3-й периоды)
Игра №8. 06.10.1974. Москва. "Лужники"
Качество: DVDRip
Формат: AVI
Видео кодек: XviD
Аудио кодек: MP3
Видео: XviD build 46; 640x494 (1,30:1); 25 fps; 1858 Kbps; 0,24 bit/pixel
Аудио: MP3; 2 ch (stereo); 48 KHz; 128 Kbps

MI

General
Format : AVI
Format/Info : Audio Video Interleave
Overall bit rate : 1 999 Kbps
Movie name : DVD_VOLUME.Title1.DVDRip
Director : Wlad
Writing application : Lavf51.19.0
Original source form/Name : DVD_VOLUME
Video
ID : 0
Format : MPEG-4 Visual
Format profile : [email protected]
Format settings, BVOP : No
Format settings, QPel : No
Format settings, GMC : No warppoints
Format settings, Matrix : Default (H.263)
Codec ID : XVID
Codec ID/Hint : XviD
Bit rate : 1 858 Kbps
Width : 640 pixels
Height : 494 pixels
Display aspect ratio : 1.296
Frame rate : 25.000 fps
Color space : YUV
Chroma subsampling : 4:2:0
Bit depth : 8 bits
Scan type : Progressive
Compression mode : Lossy
Bits/(Pixel*Frame) : 0.235
Stream size : 1.35 GiB (93%)
Writing library : XviD 1.1.2 (UTC 2006-11-01)
Audio
ID : 1
Format : MPEG Audio
Format version : Version 1
Format profile : Layer 3
Mode : Joint stereo
Mode extension : MS Stereo
Codec ID : 55
Codec ID/Hint : MP3
Bit rate mode : Constant
Bit rate : 128 Kbps
Channel count : 2 channels
Sampling rate : 48.0 KHz
Compression mode : Lossy
Stream size : 95.4 MiB (6%)
Alignment : Aligned on interleaves
Interleave, duration : 24 ms (0.60 video frame)

Скриншоты





Последний раз редактировалось: beshka666 (2016-09-14 19:07), всего редактировалось 3 раз(а)

Создавать темы 14-Сен-2016 17:36

[Профиль]  [ЛС] 

Morphing

Стаж: 5 лет 1 месяц

Сообщений: 211

Симпатии: 37

beshka666, bit rate исправьте 1858 , Качество DVDRip исправьте , так же и в шапке темы , Аудио MP3

Создавать темы 14-Сен-2016 18:18

[Профиль]  [ЛС] 

beshka666 ®

Стаж: 1 год 11 месяцев

Сообщений: 34

Симпатии: 20

984128beshka666, bit rate исправьте 1858 , Качество DVDRip исправьте , так же и в шапке темы , Аудио MP3
Исправил

Создавать темы 14-Сен-2016 18:29

[Профиль]  [ЛС] 

beshka666 ®

Стаж: 1 год 11 месяцев

Сообщений: 34

Симпатии: 20

обновите торрент

Создавать темы 14-Сен-2016 18:58

[Профиль]  [ЛС] 

Ирина

Стаж: 3 года 7 месяцев

Сообщений: 57

Симпатии: 11

А мы эти игры всей семьей поздними ночами по ч/б телевизору в прямом эфире смотрели. Как мы болели!!! Как мы кричали "Урааааааааааааа" и прыгали от радости. Несколько лет назад я скачала 1-ю игру. Счет знала, но как я нервничала... Вы не представляете сколько я съела на нервной почве, пока смотрела - думала лопну. Многих наших игроков я по номерам узнавала. Такая гордость за НАШИХ!!! И как жаль, что не нашлось желающих скачать это.

Создавать темы 14-Сен-2016 19:29

[Профиль]  [ЛС] 
Показать сообщения:    
Ответить на тему

Текущее время: 20-Авг 01:33

Часовой пояс: UTC + 5



Вы не можете начинать темы
Вы не можете отвечать на сообщения
Вы не можете редактировать свои сообщения
Вы не можете удалять свои сообщения
Вы не можете голосовать в опросах
Вы не можете прикреплять файлы к сообщениям
Вы не можете скачивать файлы