Джек из Красных сердец / Jack of the Red Hearts (Джанет Грилло) [2015, США, Драма, семейный, WEBRip] (MVO)

Ответить на тему
 

bbk ®

Стаж: 7 лет 1 месяц

Сообщений: 435

Симпатии: 479

Джек из Красных сердец / Jack of the Red Hearts
Страна: США
Жанр: Драма, семейный
Год выпуска: 2015
Продолжительность: 01:42:15
Перевод: Профессиональный (многоголосый закадровый)
Cубтитры: нет
Режиссер: Джанет Грилло
В ролях: Анна-София Робб, Израэль Бруссар, Софиа Энн Карузо, Скотт Коэн, Джон Д’Лео, Дрена Де Ниро, Париса Фитц-Хенли, Джуллиан Йао Джиоиелло, Стефен Хилл
Описание: Девочка-подросток, выросшая на улице, находится в бегах от службы пробации. Нуждаясь в месте, где можно затаиться и заработать деньги, чтобы спасти свою 11-летнюю сестру из приемной семьи, она находит приют в пригородном доме и становится помощником для страдающей аутизмом дочери хозяев. Неожиданно у героини обнаруживается способность общаться с девочкой невербально. Но вскоре ей придется сделать трудный выбор.
 
ПРИМЕЧАНИЕ: ПРИСУТСТВУЕТ РЕКЛАМА!
Качество видео: WEBRip
Формат видео: AVI
Видео: XviD, 720x304 (2.35:1), 889 Кбит/с, 25.000 fps
Аудио: MP3, 128 Kbps, 48.0 KHz, 2 ch

MediaInfo

General
Complete name : D:\Downloads\Джек из Красных сердец.avi
Format : AVI
Format/Info : Audio Video Interleave
File size : 754 MiB
Duration : 1 h 42 min
Overall bit rate : 1 030 kb/s
Writing application : Lavf56.40.101
Video
ID : 0
Format : xvid
Codec ID : xvid
Duration : 1 h 42 min
Bit rate : 889 kb/s
Width : 720 pixels
Height : 304 pixels
Display aspect ratio : 2.35:1
Frame rate : 25.000 FPS
Scan type : Progressive
Bits/(Pixel*Frame) : 0.163
Stream size : 650 MiB (86%)
Audio
ID : 1
Format : MPEG Audio
Format version : Version 1
Format profile : Layer 3
Mode : Joint stereo
Mode extension : MS Stereo
Codec ID : 55
Codec ID/Hint : MP3
Duration : 1 h 42 min
Bit rate mode : Constant
Bit rate : 128 kb/s
Channel(s) : 2 channels
Sampling rate : 48.0 kHz
Compression mode : Lossy
Stream size : 93.6 MiB (12%)
Alignment : Aligned on interleaves
Interleave, duration : 24 ms (0.60 video frame)
Interleave, preload duration : 840 ms

Скриншот c названием фильма

Скриншоты

Создавать темы 15-Сен-2016 02:13

[Профиль]  [ЛС] 

Топик был перенесен из форума Фильмы за 2015 в форум CamRip, DVDScr и т.п.
ruhal

Создавать темы 15-Сен-2016 05:49

 
Показать сообщения:    
Ответить на тему

Текущее время: 17-Дек 03:45

Часовой пояс: UTC + 5



Вы не можете начинать темы
Вы не можете отвечать на сообщения
Вы не можете редактировать свои сообщения
Вы не можете удалять свои сообщения
Вы не можете голосовать в опросах
Вы не можете прикреплять файлы к сообщениям
Вы не можете скачивать файлы