Падение Лондона / London Has Fallen (Бабак Наджафи / Babak Najafi) [2016, США, Великобритания, Болгария, Боевик, триллер, драма, криминал, BDRip-AVC] (Dub : BD RUS) (Sub Eng + Original Eng)

Ответить на тему
 

qazqazqazqaz ®

Стаж: 2 года 3 месяца

Сообщений: 20

Симпатии: 8

Падение Лондона / London Has Fallen
Страна: США, Великобритания, Болгария
Жанр: Боевик, триллер, драма, криминал
Год выпуска: 2016
Продолжительность: 01:38:41
Перевод: Профессиональный (дублированный) Доп. инфо о переводе BD RUS
Cубтитры: английские
Оригинальная аудиодорожка: английский
Режиссер: Бабак Наджафи / Babak Najafi
В ролях: Джерард Батлер, Аарон Экхарт, Морган Фриман, Алон Абутбул, Валид Зуэйтер, Адель Беншериф, Мехди Дехби, Шивани Гаи, Мартин Петрушев, Оуэн Дэвис, Майкл Уилдман, Рада Митчелл, Стэйси Шэйн, Пенни Дауни, Кларксон Гай Уильямс, Патрик Кеннеди, Колин Сэлмон, Анджела Бассетт, Дебора Грант, Эндрю Плевин
Описание: Действие фильма начинается в Лондоне, где премьер-министр Великобритании погибает при загадочных обстоятельствах. На похоронах безусловно присутствуют руководители западного мира. Но то, что начиналось как наиболее безопасное событие на земле, превращается в опаснейшее покушение на самых мощных мировых лидеров, что в свою очередь ставит под угрозу будущее всего мира. Только три человека сохраняют надежду на предотвращение катастрофы: президент США, его верный помощник — агент спецслужбы и английский агент МИ-6, который никому не доверяет.
Качество видео: BDRip-AVC
Формат видео: MKV
Видео: AVC, 1152х482 (2.40:1), 2 765 kb/s, 23.976 fps, 0.208 bit/pixel
Аудио: AC-3, 48.0 KHz, 448 Kbps, 6 ch [Rus]
Аудио 2: AC-3, 48.0 KHz, 448 Kbps, 6 ch [Eng]
Формат субтитров: softsub (SRT)

MediaInfo

General
Unique ID : 196606351266117147103952983520051990508 (0x93E90183B63A828983885E5AF19C0FEC)
Complete name : C:\Movie\Падение Лондона (London Has Fallen) 2016.mkv
Format : Matroska
Format version : Version 4 / Version 2
File size : 2.53 GiB
Duration : 1 h 38 min
Overall bit rate : 3 663 kb/s
Movie name : London Has Fallen.BDrip-AVC
Encoded date : UTC 2016-08-19 20:36:21
Writing application : mkvmerge v9.2.0 ('Photograph') 32bit
Writing library : libebml v1.3.3 + libmatroska v1.4.4
Cover : Yes
Attachments : cover.png
Video
ID : 1
Format : AVC
Format/Info : Advanced Video Codec
Format profile : [email protected]
Format settings, CABAC : Yes
Format settings, ReFrames : 10 frames
Codec ID : V_MPEG4/ISO/AVC
Duration : 1 h 38 min
Bit rate : 2 765 kb/s
Width : 1 152 pixels
Height : 482 pixels
Display aspect ratio : 2.40:1
Frame rate mode : Constant
Frame rate : 23.976 (24000/1001) FPS
Color space : YUV
Chroma subsampling : 4:2:0
Bit depth : 8 bits
Scan type : Progressive
Bits/(Pixel*Frame) : 0.208
Stream size : 1.91 GiB (75%)
Writing library : x264 core 148 r2638 7599210
Encoding settings : cabac=1 / ref=10 / deblock=1:-3:-2 / analyse=0x3:0x133 / me=umh / subme=11 / psy=1 / psy_rd=1.00:0.00 / mixed_ref=1 / me_range=32 / chroma_me=1 / trellis=2 / 8x8dct=1 / cqm=0 / deadzone=21,11 / fast_pskip=1 / chroma_qp_offset=-2 / threads=6 / lookahead_threads=1 / sliced_threads=0 / nr=0 / decimate=1 / interlaced=0 / bluray_compat=0 / constrained_intra=0 / bframes=12 / b_pyramid=2 / b_adapt=2 / b_bias=0 / direct=3 / weightb=1 / open_gop=0 / weightp=2 / keyint=240 / keyint_min=23 / scenecut=40 / intra_refresh=0 / rc_lookahead=60 / rc=crf / mbtree=1 / crf=16.0 / qcomp=0.60 / qpmin=0 / qpmax=69 / qpstep=4 / vbv_maxrate=62500 / vbv_bufsize=78125 / crf_max=0.0 / nal_hrd=none / filler=0 / ip_ratio=1.40 / aq=1:1.00
Default : Yes
Forced : No
Audio #1
ID : 2
Format : AC-3
Format/Info : Audio Coding 3
Mode extension : CM (complete main)
Format settings, Endianness : Big
Codec ID : A_AC3
Duration : 1 h 38 min
Bit rate mode : Constant
Bit rate : 448 kb/s
Channel(s) : 6 channels
Channel positions : Front: L C R, Side: L R, LFE
Sampling rate : 48.0 kHz
Frame rate : 31.250 FPS (1536 spf)
Compression mode : Lossy
Stream size : 316 MiB (12%)
Title : Dub
Language : Russian
Default : Yes
Forced : No
Audio #2
ID : 3
Format : AC-3
Format/Info : Audio Coding 3
Mode extension : CM (complete main)
Format settings, Endianness : Big
Codec ID : A_AC3
Duration : 1 h 38 min
Bit rate mode : Constant
Bit rate : 448 kb/s
Channel(s) : 6 channels
Channel positions : Front: L C R, Side: L R, LFE
Sampling rate : 48.0 kHz
Frame rate : 31.250 FPS (1536 spf)
Compression mode : Lossy
Stream size : 316 MiB (12%)
Title : Original
Language : English
Default : No
Forced : No
Text #1
ID : 4
Format : UTF-8
Codec ID : S_TEXT/UTF8
Codec ID/Info : UTF-8 Plain Text
Duration : 1 h 31 min
Bit rate : 47 b/s
Count of elements : 1031
Stream size : 31.8 KiB (0%)
Title : Full
Language : English
Default : No
Forced : No
Text #2
ID : 5
Format : UTF-8
Codec ID : S_TEXT/UTF8
Codec ID/Info : UTF-8 Plain Text
Duration : 1 h 31 min
Bit rate : 52 b/s
Count of elements : 1187
Stream size : 35.2 KiB (0%)
Title : SDH
Language : English
Default : No
Forced : No
Menu
00:00:00.000 : :Chapter 1
00:05:23.281 : :Chapter 2
00:10:12.987 : :Chapter 3
00:15:53.202 : :Chapter 4
00:20:13.546 : :Chapter 5
00:23:41.462 : :Chapter 6
00:28:51.229 : :Chapter 7
00:33:30.383 : :Chapter 8
00:39:37.208 : :Chapter 9
00:45:05.286 : :Chapter 10
00:49:43.105 : :Chapter 11
00:53:26.954 : :Chapter 12
00:58:40.392 : :Chapter 13
01:02:42.467 : :Chapter 14
01:08:22.598 : :Chapter 15
01:12:51.075 : :Chapter 16
01:17:35.401 : :Chapter 17
01:20:58.270 : :Chapter 18
01:26:11.500 : :Chapter 19
01:31:42.247 : :Chapter 20

Скриншот c названием фильма

Скриншоты





Последний раз редактировалось: qazqazqazqaz (2016-09-16 06:28), всего редактировалось 2 раз(а)

Создавать темы 15-Сен-2016 17:02

[Профиль]  [ЛС] 

Morphing

Стаж: 5 лет 1 месяц

Сообщений: 211

Симпатии: 37

qazqazqazqaz, Скриншоты не соответствуют тех данным исправьте Как сделать скриншоты, узнать тех. данные (включая MediaInfo) видео-файла с помощью Media Player Classic?

Создавать темы 15-Сен-2016 17:28

[Профиль]  [ЛС] 

qazqazqazqaz ®

Стаж: 2 года 3 месяца

Сообщений: 20

Симпатии: 8

а вы не исправите? если есть такая возможность

Комментарий от Morphing


У меня этого фильма нет , соответственно вы должны сделать скриншоты .

Создавать темы 15-Сен-2016 17:48

[Профиль]  [ЛС] 

Топик был перенесен из форума Фильмы за 2016 в форум HD-AVC
ruhal

Создавать темы 16-Сен-2016 06:28

 
Показать сообщения:    
Ответить на тему

Текущее время: 16-Авг 22:38

Часовой пояс: UTC + 5



Вы не можете начинать темы
Вы не можете отвечать на сообщения
Вы не можете редактировать свои сообщения
Вы не можете удалять свои сообщения
Вы не можете голосовать в опросах
Вы не можете прикреплять файлы к сообщениям
Вы не можете скачивать файлы