Султан / Sultan (Али Аббас Зафар / Ali Abbas Zafar) [2016, Индия, Боевик, драма, мелодрама, спорт]

Ответить на тему
 

akramzes ®

Стаж: 6 лет 6 месяцев

Сообщений: 6

Симпатии: 2

Султан / Sultan
Страна: Индия
Жанр: Боевик, драма, мелодрама, спорт
Год выпуска: 2016
Продолжительность: 02:49:23
Перевод: Любительский (многоголосый закадровый)
Cубтитры: русские (не песни)
Режиссер: Али Аббас Зафар / Ali Abbas Zafar
В ролях: Салман Кхан, Анушка Шарма, Рандип Худа, Маррезе Крамп, Тайрон Вудли, Рон Смуренбург, Брахим Ачаббаке, Бьорн Фрайберг, Мейянг Чанг и др.
Описание: Герой Салмана — боец-реслер носит гордое прозвище ”Султан”. Он настоящий султан ринга, мало кому удавалась уложить его на песок. Его имя гремит на весь город, а местные жители из числа любителей реслинга, даже поставили Султану памятник. С личной жизнью у героя тоже все прекрасно. Его жена Аарфа (Анушка Шарма) не только не осуждает своего мужа-реслера, за столь рискованное занятие, но и является самым преданным его поклонником. Еще бы, ведь в юности она сама увлекалась спортивной борьбой и даже участвовала в соревнованиях. Прошли годы, и ореол короны Султана-чемпиона изрядно потускнел. Он уже не столь непобедим на ринге, как в былые годы. Карьера бывшего кумира публики начинает катиться под уклон. Характер борца тоже изменился. Все больше в его словах раздражения и горечи. Все сильнее отдаляется от него некогда любящая жена. Султан должен найти выход из порочного круга неудач. Внезапно, на мрачном небосклоне его теперешней жизни мелькнул луч надежды....
В Нью-Дели состоится Кубок Профессиональной Лиги – самое престижное и зрелищное соревнование в Индии. Нет выше достижения, чем завоевать Кубок. Султан получает приглашение. Полный надежды, он отправляется в столицу. Побывав на нескольких тренировках и увидев будущих соперников, Султан со стыдом и гневом понимает, что его пригласили на роль мальчика для битья. Он не в той форме и, увы, уже не так молод, как прочие участники. Но железный характер бывшего чемпиона, неожиданно для него самого, заставляет Султана начать всерьез готовиться к Кубку. Он должен выйти на ринг и драться. Драться за славу, драться за любовь, драться за самого себя....
Качество видео: WEB-DLRip
Формат видео: AVI
Видео: XviD, 720x304, (2,35:1), 23,976 fps, 1021 Кбит/с, 8 бит
Аудио: Русский (АС3, 2 ch (Front: L R), 48,0 KHz, 192 Kbps)

MediaInfo

Формат : AVI
Формат/Информация : Audio Video Interleave
Размер файла : 1,45 Гбайт
Продолжительность : 2 ч. 49 м.
Общий поток : 1223 Кбит/сек
Программа кодирования : VirtualDubMod 1.5.10.2 (build 2540/release)
Библиотека кодирования : VirtualDubMod build 2540/release
Видео
Идентификатор : 0
Формат : MPEG-4 Visual
Профиль формата : Advanced [email protected]
Параметр BVOP формата : 2
Параметр QPel формата : Нет
Параметр GMC формата : Без точки перехода
Параметр матрицы формата : Выборочная
Идентификатор кодека : XVID
Идентификатор кодека/Подсказка : XviD
Продолжительность : 2 ч. 49 м.
Битрейт : 1022 Кбит/сек
Ширина : 720 пикселей
Высота : 304 пикселя
Соотношение сторон : 2,35:1
Частота кадров : 23,976 (23976/1000) кадра/сек
Цветовое пространство : YUV
Субдискретизация насыщенности : 4:2:0
Битовая глубина : 8 бит
Тип развёртки : Прогрессивная
Метод сжатия : С потерями
Бит/(Пиксели*Кадры) : 0.195
Размер потока : 1,21 Гбайт (84%)
Библиотека кодирования : XviD 1.2.0.dev47 (UTC 2006-11-01)
Аудио
Идентификатор : 1
Формат : AC-3
Формат/Информация : Audio Coding 3
Расширение режима : CM (complete main)
Параметр Endianness формата : Big
Идентификатор кодека : 2000
Продолжительность : 2 ч. 49 м.
Вид битрейта : Постоянный
Битрейт : 192 Кбит/сек
Каналы : 2 канала
Расположение каналов : Front: L R
Частота : 48,0 КГц
Частота кадров : 31,250 кадров/сек (1536 spf)
Метод сжатия : С потерями
Размер потока : 233 Мбайт (16%)
Выравнивание : Разделение по промежуткам
Продолжительность промежутка : 42 мс. (1,00 видеокадр)
Время предзагрузки промежутка : 500 мс.

Скриншоты





Последний раз редактировалось: akramzes (2016-09-16 23:42), всего редактировалось 2 раз(а)

Создавать темы 16-Сен-2016 10:54

[Профиль]  [ЛС] 

nigga22480

Стаж: 7 лет 5 месяцев

Сообщений: 211

Симпатии: 13

Нифига Салмон Хон Шварц в молодости!!!

Создавать темы 16-Сен-2016 15:30

[Профиль]  [ЛС] 

seka

Стаж: 4 года 7 месяцев

Сообщений: 39

Симпатии: 2

скорость

Создавать темы 06-Дек-2016 13:57

[Профиль]  [ЛС] 
Показать сообщения:    
Ответить на тему

Текущее время: 21-Окт 10:02

Часовой пояс: UTC + 5



Вы не можете начинать темы
Вы не можете отвечать на сообщения
Вы не можете редактировать свои сообщения
Вы не можете удалять свои сообщения
Вы не можете голосовать в опросах
Вы не можете прикреплять файлы к сообщениям
Вы не можете скачивать файлы