АРКА / ARQ (Тони Эллиотт) [2016, США, фантастика, триллер, WEBRip 1080p] (Sub Eng + Original Eng)

Ответить на тему
 

dasar ®

Стаж: 4 года 11 месяцев

Сообщений: 26

Симпатии: 29

АРКА / ARQ ]
Страна: США
Жанр: фантастика, триллер
Год выпуска: 2016
Продолжительность: 01:28:00
Перевод: Отсутствует
Cубтитры: английские
Оригинальная аудиодорожка: английский
Режиссер: Тони Эллиотт
В ролях: Робби Амелл, Рэйчел Тейлор, Грэй Пауэлл, Джейкоб Нийем, Шон Бенсон, Адам Батчер, Джейми Спильчук
Описание: В мире будущего идут постоянные локальные и глобальные войны между мощнейшими транснациональными корпорациями и остатками государств за источники энергии. Молодой инженер Рентон совершил революционный прорыв в науке и изобрёл принципиально новый экспериментальный агрегат АРКА, генерирующий энергию. Потенциально АРКА может остановить войны на земле, однако такая машина не может не привлечь внимание корпораций и частных лиц криминального характера. Рентон пытался соблюдать максимальную осторожность в своей работе, однако кто-то всё же пронюхал об аппарате и прислала в квартиру-лабораторию инженера двух налётчиков.
Рентон просыпается около шести утра со странным чувством беспокойства, буквально через минуту дверь его квартиры слетает с петель и на пороге появляются два вооружённых громилы, которые расстреливают Рентона и его девушку Ханну…
А через секунду Рентон снова просыпается в своей квартире около шести утра со странным чувством беспокойства. Каким-то образом АРКА создала временную петлю и не даёт своему создателю умереть глупой смертью, однако далее очередь за инженером – ему нужно в крайне сжатые сроки придумать способ, как выжить и вырваться из замкнутого круга времени, защитить своё научное детище и спасти будущее Земли.
Качество видео: WEBRip 1080p
Формат видео: MKV
Видео: H.264, 1920x800, 2.40:1, 23.976, 5861 Kbps
Аудио: AC-3, 48 KHz, 640 Kbps, 6 channels, Английские

MediaInfo

General
Unique ID : 242823116632391851736403904465677376124 (0xB6AE07F986012CAE9CC04FF5AC44DA7C)
Complete name : arq.2016.1080p.webrip.x264-skgtv.mkv
Format : Matroska
Format version : Version 4 / Version 2
File size : 3.98 GiB
Duration : 1h 27mn
Overall bit rate : 6 502 Kbps
Movie name : arq.2016.1080p.skgtv
Encoded date : UTC 2016-09-16 20:59:41
Writing application : mkvmerge v8.9.0 ('Father Daughter') 32bit
Writing library : libebml v1.3.3 + libmatroska v1.4.4
Video
ID : 1
Format : AVC
Format/Info : Advanced Video Codec
Format profile : [email protected]
Format settings, CABAC : Yes
Format settings, ReFrames : 4 frames
Codec ID : V_MPEG4/ISO/AVC
Duration : 1h 27mn
Bit rate : 5 861 Kbps
Width : 1 920 pixels
Height : 800 pixels
Display aspect ratio : 2.40:1
Frame rate mode : Constant
Frame rate : 23.976 (24000/1001) fps
Color space : YUV
Chroma subsampling : 4:2:0
Bit depth : 8 bits
Scan type : Progressive
Bits/(Pixel*Frame) : 0.159
Stream size : 3.59 GiB (90%)
Writing library : x264 core 148 r2705 3f5ed56
Encoding settings : cabac=1 / ref=4 / deblock=1:-3:-3 / analyse=0x3:0x113 / me=umh / subme=8 / psy=1 / psy_rd=1.00:0.00 / mixed_ref=1 / me_range=16 / chroma_me=1 / trellis=1 / 8x8dct=1 / cqm=0 / deadzone=21,11 / fast_pskip=1 / chroma_qp_offset=-2 / threads=15 / lookahead_threads=2 / sliced_threads=0 / nr=0 / decimate=1 / interlaced=0 / bluray_compat=0 / constrained_intra=0 / bframes=3 / b_pyramid=2 / b_adapt=2 / b_bias=0 / direct=3 / weightb=1 / open_gop=0 / weightp=2 / keyint=250 / keyint_min=23 / scenecut=40 / intra_refresh=0 / rc_lookahead=50 / rc=crf / mbtree=1 / crf=17.0 / qcomp=0.60 / qpmin=0 / qpmax=69 / qpstep=4 / ip_ratio=1.40 / aq=1:1.00
Language : English
Default : Yes
Forced : No
Color range : Limited
Matrix coefficients : BT.709
Audio
ID : 2
Format : AC-3
Format/Info : Audio Coding 3
Mode extension : CM (complete main)
Format settings, Endianness : Big
Codec ID : A_AC3
Duration : 1h 27mn
Bit rate mode : Constant
Bit rate : 640 Kbps
Channel(s) : 6 channels
Channel positions : Front: L C R, Side: L R, LFE
Sampling rate : 48.0 KHz
Frame rate : 31.250 fps (1536 spf)
Compression mode : Lossy
Stream size : 402 MiB (10%)
Language : English
Default : Yes
Forced : No

Скриншоты







Последний раз редактировалось: dasar (2016-09-18 20:44), всего редактировалось 2 раз(а)

Создавать темы 18-Сен-2016 20:15

[Профиль]  [ЛС] 

s7a1b1i8r3

Стаж: 5 лет 11 месяцев

Сообщений: 17

фильм без перевода. в релизе отсутствует аудио дорожка с русской озвучкой.

Создавать темы 05-Июн-2017 18:10

[Профиль]  [ЛС] 
Показать сообщения:    
Ответить на тему

Текущее время: 16-Дек 21:29

Часовой пояс: UTC + 5



Вы не можете начинать темы
Вы не можете отвечать на сообщения
Вы не можете редактировать свои сообщения
Вы не можете удалять свои сообщения
Вы не можете голосовать в опросах
Вы не можете прикреплять файлы к сообщениям
Вы не можете скачивать файлы