Спасение (Иван Вырыпаев) [2015, драма, WEB-DLRip]

Ответить на тему
 

kat222000 ®

Стаж: 6 лет 6 месяцев

Сообщений: 608

Симпатии: 1055

Спасение Страна: Россия
Жанр: драма
Год выпуска: 2015
Продолжительность: 01:30:44
Перевод: Оригинал
Субтитры: нет-Режиссер: Иван Вырыпаев-В ролях: Полина Гришина, Каролина Грушка, Казимир Лиске, Ванчук Фарго, Диана Замойская, отец Эдвард, Иван Вырыпаев-Описание: Молодую католическую монахиню сестру Анну из Польши отправляют служить в миссию католического прихода высоко в гималайских горах. Сестре Анне 25 лет, и половину жизни она провела в монастыре. И вот, первый раз в жизни она выезжает в другую страну, и не просто в какую-то страну, а в аутентичный край Ладакх, который является частью тибетской Индии. Приехав туда, сестра Анна оказывается в совершенно незнакомом ей мире. Она сталкивается с совсем иной культурой, с другими энергиями и абсолютно другой религией. Загадочный мир Тибета и случайные встречи в пути приносят сложные мысли и вопросы.- -Возраст: зрителям, достигшим 16 лет-Рейтинг MPAA: лицам до 17 лет обязательно присутствие взрослого-Качество видео: WEB-DLRip
Формат видео: AVI
Видео кодек: XviD
Аудио кодек: AC3
Видео: 720x400 (1.80:1), 25.000 fps, XviD 1.2.1 ~1 763 kbps avg, 0.245 bit/pixel
Аудио: 48 kHz, AC3 Dolby Digital, 2/0 (L,R) ch, ~384.00 kbps avg (Русский | Оригинал)-

〤 ОтчетМедиаИнфо 〤

General
Format : AVI
Format/Info : Audio Video Interleave
File size : 1.37 GiB
Duration : 1h 30mn
Overall bit rate : 2 157 Kbps
Writing application : VirtualDubMod 1.5.10.2 (build 2540/release)
Writing library : VirtualDubMod build 2540/release
Video
ID : 0
Format : MPEG-4 Visual
Format profile : Advanced [email protected]
Format settings, BVOP : Yes
Format settings, QPel : No
Format settings, GMC : No warppoints
Format settings, Matrix : Custom
Codec ID : XVID
Codec ID/Hint : XviD
Duration : 1h 30mn
Bit rate : 1 763 Kbps
Width : 720 pixels
Height : 400 pixels
Display aspect ratio : 16:9
Frame rate : 25.000 fps
Color space : YUV
Chroma subsampling : 4:2:0
Bit depth : 8 bits
Scan type : Progressive
Compression mode : Lossy
Bits/(Pixel*Frame) : 0.245
Stream size : 1.12 GiB (82%)
Writing library : XviD 1.2.1 (UTC 2008-12-04)
Audio
ID : 1
Format : AC-3
Format/Info : Audio Coding 3
Mode extension : CM (complete main)
Format settings, Endianness : Big
Codec ID : 2000
Duration : 1h 30mn
Bit rate mode : Constant
Bit rate : 384 Kbps
Channel(s) : 2 channels
Channel positions : Front: L R
Sampling rate : 48.0 KHz
Bit depth : 16 bits
Compression mode : Lossy
Stream size : 249 MiB (18%)
Alignment : Split accross interleaves
Interleave, duration : 40 ms (1.00 video frame)
Interleave, preload duration : 500 ms
-

〤 Скриншоты 〤



© Оформление by kat222000

Создавать темы 18-Сен-2016 23:42

[Профиль]  [ЛС] 
Показать сообщения:    
Ответить на тему

Текущее время: 22-Окт 11:40

Часовой пояс: UTC + 5



Вы не можете начинать темы
Вы не можете отвечать на сообщения
Вы не можете редактировать свои сообщения
Вы не можете удалять свои сообщения
Вы не можете голосовать в опросах
Вы не можете прикреплять файлы к сообщениям
Вы не можете скачивать файлы