Красавица и Чудовище / Beauty and the Beast / Сезон: 4 / Серии: 1-13 из 13 (Рик Бота, Стивен А. Эделсон, Майрзи Алмас) [2016, триллер, драма, криминал, детектив, WEB-DLRip] (MVO : LostFilm)

Ответить на тему
 

saidali ®

Стаж: 5 лет 8 месяцев

Сообщений: 868

Симпатии: 554

Красавица и Чудовище / Beauty and the Beast
Год выпуска: 2016
Страна: США
Жанр: триллер, драма, криминал, детектив
Продолжительность: ~ 00:43:00 сери
Перевод: Профессиональный многоголосый закадровый Доп. инфо о переводе LostFilm
Русские субтитры: нет
Режиссёр: Рик Бота, Стивен А. Эделсон, Майрзи Алмас
В ролях: Кристин Кройк, Джей Райан, Остин Басис, Нина Лизандрелло, Макс Браун, Брайан Дж. Уайт, Николь Гэйл Андерсон, Сендхил Рамамурти и др.
Описание: Она – талантливый детектив. Он – боец, прошедший Афганистан и жертва засекреченных экспериментов, превративших его в зверя в людском теле. Они встречаются, когда Винсент спасает подростка Кэтрин от головорезов, расстрелявших ее мать. Только герой появляется в образе зверя и жестоко расправляется с убийцами матери. Спустя годы Кэт становится полицейским. Их вторая встреча – случайна, но лишь на первый взгляд. Винсента с этой женщиной связывает таинственная миссия, которую человек-оборотень не осознает либо умело скрывает. Их судьбы заплетаются в один клубок из любви, опасностей, совместной работы и тайн. Это связь сверхъестественного зверя и женщины, пережившей трагедии, уже имела место в прошлом. Ребекка, предок героини, 100 лет назад любила и защищала человека-зверя. История повторяется и Кэтрин понимает, что ее жизнь с темными пятнами и пронизана ложью. Чтобы раскрыть глубокий заговор, Винсент вынужден чаще оборачиваться в животное. Однако, выпуская злобного, неконтролируемого зверя, он рискует жизнью Кэт и своей собственной. Войдет ли жизнь этих необычных персонажей в нормальное русло?
Качество: WEB-DLRip
Формат: AVI
Видео кодек: XviD
Аудио кодек: MP3
Видео: 720x400 (16:9), 23.976 fps, 1 559 Kbps (0.226 bit/pixel)
Аудио: 48.0 KHz, 2 ch, 192 Kbps, VBR / RUS

MediaInfo

E:\Сериалы\Beauty and the Beast (Season 04) LostFilm\Beauty.and.the.Beast.S04E01.rus.LostFilm.TV.avi
General
Complete name : E:\Сериалы\Beauty and the Beast (Season 04) LostFilm\Beauty.and.the.Beast.S04E01.rus.LostFilm.TV.avi
Format : AVI
Format/Info : Audio Video Interleave
File size : 524 MiB
Duration : 41mn 38s
Overall bit rate mode : Variable
Overall bit rate : 1 760 Kbps
Writing application : Nandub v1.0rc2
Writing library : Nandub build 1853/release
Video #0
ID : 0
Format : MPEG-4 Visual
Format profile : Advanced [email protected]
Format settings, BVOP : No
Format settings, QPel : No
Format settings, GMC : No warppoints
Format settings, Matrix : Default (H.263)
Codec ID : XVID
Codec ID/Hint : XviD
Duration : 41mn 38s
Bit rate : 1 559 Kbps
Width : 720 pixels
Height : 400 pixels
Display aspect ratio : 16:9
Frame rate : 23.976 fps
Color space : YUV
Chroma subsampling : 4:2:0
Bit depth : 8 bits
Scan type : Progressive
Compression mode : Lossy
Bits/(Pixel*Frame) : 0.226
Stream size : 464 MiB (89%)
Writing library : XviD 1.2.1 (UTC 2008-12-04)
Audio #1
ID : 1
Format : MPEG Audio
Format version : Version 1
Format profile : Layer 3
Mode : Joint stereo
Mode extension : MS Stereo
Codec ID : 55
Codec ID/Hint : MP3
Duration : 41mn 38s
Bit rate mode : Variable
Bit rate : 192 Kbps
Channel(s) : 2 channels
Sampling rate : 48.0 KHz
Compression mode : Lossy
Stream size : 56.0 MiB (11%)
Alignment : Aligned on interleaves
Interleave, duration : 24 ms (0.58 video frame)
Interleave, preload duration : 481 ms
Writing library : LAME3.97b
Encoding settings : -m j -V 4 -q 3 -lowpass 18.6 --abr 192

Скриншоты



Релиз подготовлен RG Serials

Создавать темы 19-Сен-2016 20:49

[Профиль]  [ЛС] 
Показать сообщения:    
Ответить на тему

Текущее время: 20-Окт 03:06

Часовой пояс: UTC + 5



Вы не можете начинать темы
Вы не можете отвечать на сообщения
Вы не можете редактировать свои сообщения
Вы не можете удалять свои сообщения
Вы не можете голосовать в опросах
Вы не можете прикреплять файлы к сообщениям
Вы не можете скачивать файлы