Школьница с бензопилой / Chimamire sukeban chênsô (Хироки Ямагути) [2016, Япония, ужасы, боевик, WEB-DLRip] (DVO : den904 & DeadSno)

Ответить на тему
 

bbk ®

Стаж: 6 лет 11 месяцев

Сообщений: 435

Симпатии: 479

Школьница с бензопилой / Chimamire sukeban chênsô
Страна: Япония
Жанр: ужасы, боевик
Год выпуска: 2016
Продолжительность: 01:16:20
Перевод: Любительский (двухголосый закадровый), den904 & DeadSno
Cубтитры: нет
Режиссер: Хироки Ямагути
В ролях: Mizuho Abe, Сейдзиро Накамура, Ray Nishimura, Kayako Okuda, Seira Satô, Юки Тамаки, Рио Учида, Мари Ямати
Описание: Нокомура Гико - не самая прилежная ученица средней школы. Однажды ей приходится вступить в кровавую схватку с зомби, которые когда-то были ее одноклассниками. Снято по одноименно манге Mikamoto Rei.
 
ПРИМЕЧАНИЕ: ПРИСУТСТВУЕТ РЕКЛАМА!
Качество видео: WEB-DLRip
Формат видео: AVI
Видео: XviD, 720x400(16:9), 23.976 fps, 2166 kb/s
Аудио: AC3, 48.0 kHz, 384 kb/s (2 ch)

MediaInfo

General
Complete name : Shkolnitsa.s.benzopiloy.L2.2016.WEB-DLRip.avi
Format : AVI
Format/Info : Audio Video Interleave
File size : 1.36 GiB
Duration : 1 h 16 min
Overall bit rate : 2 560 kb/s
Writing application : VirtualDubMod 1.5.10.3 | www.virtualdub-fr.org || (build 2550/release)
Writing library : VirtualDubMod build 2550/release
Video
ID : 0
Format : MPEG-4 Visual
Format profile : Advanced [email protected]
Format settings, BVOP : 1
Format settings, QPel : No
Format settings, GMC : No warppoints
Format settings, Matrix : Custom
Codec ID : XVID
Codec ID/Hint : XviD
Duration : 1 h 16 min
Bit rate : 2 166 kb/s
Width : 720 pixels
Height : 400 pixels
Display aspect ratio : 16:9
Frame rate : 23.976 (23976/1000) FPS
Color space : YUV
Chroma subsampling : 4:2:0
Bit depth : 8 bits
Scan type : Progressive
Compression mode : Lossy
Bits/(Pixel*Frame) : 0.314
Stream size : 1.16 GiB (85%)
Writing library : XviD 73
Audio
ID : 1
Format : AC-3
Format/Info : Audio Coding 3
Mode extension : CM (complete main)
Format settings, Endianness : Big
Codec ID : 2000
Duration : 1 h 16 min
Bit rate mode : Constant
Bit rate : 384 kb/s
Channel(s) : 2 channels
Channel positions : Front: L R
Sampling rate : 48.0 kHz
Frame rate : 31.250 FPS (1536 spf)
Compression mode : Lossy
Stream size : 210 MiB (15%)
Alignment : Split accross interleaves
Interleave, duration : 42 ms (1.00 video frame)
Interleave, preload duration : 500 ms

Скриншот c названием фильма

Скриншоты

Создавать темы 20-Сен-2016 05:24

[Профиль]  [ЛС] 
Показать сообщения:    
Ответить на тему

Текущее время: 17-Окт 11:00

Часовой пояс: UTC + 5



Вы не можете начинать темы
Вы не можете отвечать на сообщения
Вы не можете редактировать свои сообщения
Вы не можете удалять свои сообщения
Вы не можете голосовать в опросах
Вы не можете прикреплять файлы к сообщениям
Вы не можете скачивать файлы