В объятиях смерти / Mother, May I Sleep with Danger? (Мелани Эйткенхеад) [2016, США, Триллер, WEB-DL 720p] (MVO)

Ответить на тему
 

bbk ®

Стаж: 7 лет

Сообщений: 435

Симпатии: 479

В объятиях смерти / Mother, May I Sleep with Danger?
Страна: США
Жанр: Триллер
Год выпуска: 2016
Продолжительность: 01:25:49
Перевод: Профессиональный (многоголосый закадровый)
Cубтитры: нет
Режиссер: Мелани Эйткенхеад
В ролях: Джеймс Франко, Эмбер Кони, Эмили Мид, Эмма Ригби, Тори Спеллинг, Иван Сергей, Ник Эверсман, Джейми Соричелли, Кристи Линн Смит, Лейла Джордж
Описание: Старшеклассница Леа влюбляется в загадочную девушку по имени Перл, которая оказывается вампиром, что выливается в конфликт с матерью главной героини, тусовки на кладбище и странную школьную постановку с большим количеством искусственной крови.
 
Реклама: присутствуют аудио и видео вставки рекламы.
Качество видео: WEB-DL 720p
Формат видео: MKV
Видео: MPEG-4 AVC, 4262 Кбит/с, 1280x720(16:9)
Аудио: AC3, 2 ch, 384 Кбит/с

MediaInfo

General
Complete name : V.objyatiyah.smerti.2016.D.WEB-DL.720p.mkv
Format : Matroska
Format version : Version 2
File size : 2.84 GiB
Duration : 1 h 25 min
Overall bit rate mode : Variable
Overall bit rate : 4 740 kb/s
Encoded date : UTC 2016-09-20 18:01:31
Writing application : mkvmerge v8.3.0 ('Over the Horizon') 64bit
Writing library : libebml v1.3.1 + libmatroska v1.4.2
Video
ID : 1
Format : AVC
Format/Info : Advanced Video Codec
Format profile : [email protected]
Format settings, CABAC : Yes
Format settings, ReFrames : 9 frames
Codec ID : V_MPEG4/ISO/AVC
Duration : 1 h 25 min
Bit rate mode : Variable
Bit rate : 4 262 kb/s
Maximum bit rate : 8 000 kb/s
Width : 1 280 pixels
Height : 720 pixels
Display aspect ratio : 16:9
Frame rate mode : Constant
Frame rate : 23.976 (24000/1001) FPS
Standard : Component
Color space : YUV
Chroma subsampling : 4:2:0
Bit depth : 8 bits
Scan type : Progressive
Bits/(Pixel*Frame) : 0.193
Stream size : 2.55 GiB (90%)
Default : Yes
Forced : No
Color range : Limited
Color primaries : BT.709
Transfer characteristics : BT.709
Matrix coefficients : BT.709
Audio
ID : 2
Format : AC-3
Format/Info : Audio Coding 3
Mode extension : CM (complete main)
Format settings, Endianness : Big
Codec ID : A_AC3
Duration : 1 h 25 min
Bit rate mode : Constant
Bit rate : 384 kb/s
Channel(s) : 2 channels
Channel positions : Front: L R
Sampling rate : 48.0 kHz
Frame rate : 31.250 FPS (1536 spf)
Compression mode : Lossy
Stream size : 236 MiB (8%)
Language : Russian
Default : Yes
Forced : No

Скриншоты

Создавать темы 21-Сен-2016 03:37

[Профиль]  [ЛС] 

Топик был перенесен из форума Фильмы за 2016 в форум HD-AVC
ruhal

Создавать темы 21-Сен-2016 06:08

 
Показать сообщения:    
Ответить на тему

Текущее время: 14-Дек 22:01

Часовой пояс: UTC + 5



Вы не можете начинать темы
Вы не можете отвечать на сообщения
Вы не можете редактировать свои сообщения
Вы не можете удалять свои сообщения
Вы не можете голосовать в опросах
Вы не можете прикреплять файлы к сообщениям
Вы не можете скачивать файлы