Беги / Сезон:1 Серии: 1-4 из 4 (Андрей Волгин, Максим Кондратенко) [2016, боевик, детектив, SATRip]

Ответить на тему
 

inkus ®

Стаж: 7 лет 4 месяца

Сообщений: 50

Симпатии: 39

Беги
Год выпуска: 2016
Производство: Россия
Жанр: боевик, детектив
Продолжительность: 00:45:00
Субтитры: нет
Режиссёр: Андрей Волгин, Максим Кондратенко
В ролях: Павел Прилучный, Денис Шведов, Екатерина Редникова, Иван Жидков, Светлана Смирнова-Марцинкевич, Сергей Колос, Аркадий Шароградский, Татьяна Казючиц, Александр Кудренко, Владимир Крылов, Михаил Трясоруков, Сергей Харитонов, Вячеслав Гумеров, Геша Меньшиков, Денис Кириллов, Глеб Темнов, Геннадий Скоморохов, Сергей Лысов.
Описание: Четверо друзей - Павел, Матвей и братья Артём и Дмитрий Воронковы - берут кредит в банке, чтобы завершить разработку уникальной компьютерной программы. Её создал "русский Билл Гейтс" Дима Воронков. Ребята рассчитывают выгодно продать своё изобретение, а Дима мечтает жениться на своей невесте Варе, которая ждёт ребёнка. Но внезапно Артёма Воронкова убивают, а в преступлении обвиняют его брата Диму. Программиста отправляют в колонию, где заключенные требуют флешку с программой, угрожая Воронкову и его семье. Дима понимает, что спасти себя и Варю он сможет, если окажется на свободе. Судьба даёт Диме последний шанс, подсказывая: "Беги!". На главного героя начинается настоящая охота. По его следу идут подполковник Алла Кириленко, а также конкуренты, которые хотят завладеть новой технологией Воронкова.
Качество: SATRip
Формат: AVI
Видео кодек: XviD
Аудио кодек: MPEG
Видео: XviD, 1797 kb/s, 720x448
Аудио: MPEG, 128 kb/s, 2 ch

MI

Общее
Полное имя : F:\1 мои раздачи торент\Begi\Begi.1.avi
Формат : AVI
Формат/Информация : Audio Video Interleave
Размер файла : 630 Мбайт
Продолжительность : 45 м.
Общий поток : 1935 Кбит/сек
Программа кодирования : VirtualDubMod 1.5.10.3 | www.virtualdub-fr.org || (build 2550/release)
Библиотека кодирования : VirtualDub build 29808/release
Видео
Идентификатор : 0
Формат : MPEG-4 Visual
Профиль формата : Advanced Simple[email protected]
Параметр BVOP формата : 2
Параметр QPel формата : Нет
Параметр GMC формата : Без точки перехода
Параметр матрицы формата : Default (H.263)
Идентификатор кодека : XVID
Идентификатор кодека/Подсказка : XviD
Продолжительность : 45 м.
Битрейт : 1797 Кбит/сек
Ширина : 720 пикселей
Высота : 448 пикселей
Соотношение сторон : 16:10
Частота кадров : 25,000 кадров/сек
Цветовое пространство : YUV
Субдискретизация насыщенности : 4:2:0
Битовая глубина : 8 бит
Тип развёртки : Прогрессивная
Метод сжатия : С потерями
Бит/(Пиксели*Кадры) : 0.223
Размер потока : 585 Мбайт (93%)
Библиотека кодирования : XviD 1.2.1 (UTC 2008-12-04)
Аудио
Идентификатор : 1
Формат : MPEG Audio
Версия формата : Version 1
Профиль формата : Layer 3
Режим : Joint stereo
Расширение режима : MS Stereo
Идентификатор кодека : 55
Идентификатор кодека/Подсказка : MP3
Продолжительность : 45 м.
Вид битрейта : Постоянный
Битрейт : 128 Кбит/сек
Каналы : 2 канала
Частота : 48,0 КГц
Метод сжатия : С потерями
Размер потока : 41,7 Мбайт (7%)
Выравнивание : Соединение по промежуткам
Продолжительность промежутка : 40 мс. (1,00 видеокадр)
Время предзагрузки промежутка : 504 мс.
Библиотека кодирования : LAME3.99r
Настройки программы : -m j -V 4 -q 2 -lowpass 17 -b 128

Скриншоты





Последний раз редактировалось: inkus (2016-11-11 17:54), всего редактировалось 2 раз(а)

Создавать темы 23-Сен-2016 15:22

[Профиль]  [ЛС] 
Показать сообщения:    
Ответить на тему

Текущее время: 20-Сен 14:27

Часовой пояс: UTC + 5



Вы не можете начинать темы
Вы не можете отвечать на сообщения
Вы не можете редактировать свои сообщения
Вы не можете удалять свои сообщения
Вы не можете голосовать в опросах
Вы не можете прикреплять файлы к сообщениям
Вы не можете скачивать файлы