День независимости: Возрождение / Independence Day: Resurgence (Роланд Эммерих / Roland Emmerich) [2016] [Фантастика, боевик, приключения] WEB-DL 1080p | Line [Eng/Rus | Sub: eng]

Ответить на тему
 

Faustus ®

Стаж: 1 год 1 месяц

Сообщений: 25

Симпатии: 19

-День независимости: Возрождение / Independence Day: Resurgence- Год выпуска: 2016
Страна: США / 20th Century Fox Film Corporation
Жанр: Фантастика, боевик, приключения
Продолжительность: 02:00:12
Перевод: Профессиональный (дублированный) [Line]
Субтитры: Английские-Режиссер: Роланд Эммерих
В ролях: Лиам Хемсворт, Джефф Голдблюм, Джесси Ашер, Билл Пуллман,
Майка Монро, Села Уорд, Уильям Фихтнер, Джадд Хёрш, Брент Спайнер, Патрик Ст. Эсприт-Описание:Используя инопланетные технологии, жители Земли создали
специальную программу по защите планеты. Но ничего не может нас спасти от нового,
еще более разрушительного и масштабного инопланетного вторжения — только смелость
нескольких героев, которые единственные могут спасти наш мир от уничтожения.-Качество: WEB-DL 1080p
Формат: mkv (matroska)
Видео кодек: H264
Аудио кодек: AC3
Видео: MPEG4 Video (H264) 1916x798 (245:102) 24fps (h264 high L4.0, yuv420p, 1916x798)
Аудио 1: Dolby AC3 48000Hz 6ch 384kbps [A: LINE [rus] (ac3, 48000 Hz, 5.1, 384 kb/s) [default]]
Аудио 2: Dolby AC3 48000Hz 6ch 384kbps [A: English [eng] (ac3, 48000 Hz, 5.1, 384 kb/s)]-

Скриншоты








Media Info

General
Format : Matroska
Format version : Version 4 / Version 2
File size : 4.46 GiB
Duration : 2h 0mn
Overall bit rate : 5 311 Kbps
Encoded date : UTC 2016-09-23 14:22:36
Writing application : mkvmerge v9.4.2 ('So High') 64bit
Writing library : libebml v1.3.4 + libmatroska v1.4.5
DURATION : 01:59:11.008000000
NUMBER_OF_FRAMES : 223469
NUMBER_OF_BYTES : 343248384
_STATISTICS_WRITING_APP : mkvmerge v9.4.2 ('So High') 64bit
_STATISTICS_WRITING_DATE_UTC : 2016-09-23 14:22:36
_STATISTICS_TAGS : BPS DURATION NUMBER_OF_FRAMES NUMBER_OF_BYTES
Video
ID : 1
Format : AVC
Format/Info : Advanced Video Codec
Format profile : [email protected]
Format settings, CABAC : Yes
Format settings, ReFrames : 5 frames
Codec ID : V_MPEG4/ISO/AVC
Duration : 2h 0mn
Bit rate : 4 437 Kbps
Width : 1 916 pixels
Height : 798 pixels
Display aspect ratio : 2.40:1
Frame rate mode : Constant
Frame rate : 23.976 fps
Color space : YUV
Chroma subsampling : 4:2:0
Bit depth : 8 bits
Scan type : Progressive
Bits/(Pixel*Frame) : 0.121
Stream size : 3.73 GiB (84%)
Language : English
Default : Yes
Forced : No
Color primaries : BT.709
Transfer characteristics : BT.709
Matrix coefficients : BT.709
Audio #1
ID : 2
Format : AC-3
Format/Info : Audio Coding 3
Mode extension : CM (complete main)
Format settings, Endianness : Big
Codec ID : A_AC3
Duration : 2h 0mn
Bit rate mode : Constant
Bit rate : 384 Kbps
Channel(s) : 6 channels
Channel positions : Front: L C R, Side: L R, LFE
Sampling rate : 48.0 KHz
Bit depth : 16 bits
Compression mode : Lossy
Stream size : 330 MiB (7%)
Title : LINE
Language : Russian
Default : Yes
Forced : No
Audio #2
ID : 3
Format : AC-3
Format/Info : Audio Coding 3
Mode extension : CM (complete main)
Format settings, Endianness : Big
Codec ID : A_AC3
Duration : 2h 0mn
Bit rate mode : Constant
Bit rate : 384 Kbps
Channel(s) : 6 channels
Channel positions : Front: L C R, Side: L R, LFE
Sampling rate : 48.0 KHz
Bit depth : 16 bits
Compression mode : Lossy
Stream size : 330 MiB (7%)
Language : English
Default : No
Forced : No
Text
ID : 4
Format : UTF-8
Codec ID : S_TEXT/UTF8
Codec ID/Info : UTF-8 Plain Text
Language : English
Default : No
Forced : No
Menu
00:00:00.000 : en:1
00:05:36.378 : en:2
00:09:14.512 : en:3
00:14:05.761 : en:4
00:19:39.511 : en:5
00:22:58.042 : en:6
00:27:09.293 : en:7
00:31:36.685 : en:8
00:39:11.014 : en:9
00:43:40.158 : en:10
00:47:45.653 : en:11
00:52:31.230 : en:12
00:59:09.294 : en:13
01:01:59.172 : en:14
01:07:11.108 : en:15
01:09:53.854 : en:16
01:13:10.759 : en:17
01:18:26.491 : en:18
01:22:44.540 : en:19
01:27:50.846 : en:20
01:32:35.755 : en:21
01:39:37.176 : en:22
01:47:19.179 : en:23
01:50:35.750 : en:24

Создавать темы 25-Сен-2016 00:58

[Профиль]  [ЛС] 

Faustus ®

Стаж: 1 год 1 месяц

Сообщений: 25

Симпатии: 19

Запись удалена


Последний раз редактировалось: Faustus (2016-10-12 01:16), всего редактировалось 1 раз

Создавать темы 25-Сен-2016 01:01

[Профиль]  [ЛС] 

Топик был перенесен из форума Фильмы за 2016 в форум HD-AVC
ruhal

Создавать темы 25-Сен-2016 08:02

 
Показать сообщения:    
Ответить на тему

Текущее время: 24-Окт 16:27

Часовой пояс: UTC + 5



Вы не можете начинать темы
Вы не можете отвечать на сообщения
Вы не можете редактировать свои сообщения
Вы не можете удалять свои сообщения
Вы не можете голосовать в опросах
Вы не можете прикреплять файлы к сообщениям
Вы не можете скачивать файлы