Ван Хельсинг / Van Helsing / Сезон: 1 / Серии: 1-12 из 13 (Майкл Нанкин, Саймон Барри, Дэвид Фрасее, Джейсон Пристли, Аманда Тэппинг) [2016, Ужасы, боевик, драма, WEB-DLRip] (MVO : LostFilm)

Ответить на тему
 

emilsky ®

Стаж: 7 лет 5 месяцев

Сообщений: 2237

Симпатии: 610

Ван Хельсинг / Van Helsing
Год выпуска: 2016
Страна: США
Жанр: Ужасы, боевик, драма
Продолжительность: ~ 00:40:00
Перевод: Профессиональный многоголосый закадровый Доп. инфо о переводе LostFilm
Режиссёр: Майкл Нанкин, Саймон Барри, Дэвид Фрасее, Джейсон Пристли, Аманда Тэппинг
В ролях: Келли Овертон, Джонатан Скарф, Кристофер Хейердал, Пол Йоханссон, Дэвид Кьюбитт, Сара Дежарден, Дженнифер Коппинг, Бетани Браун
Описание: Действие сериала разворачивается вокруг Ванессы Хельсинг, дочери самого известного охотника на вампиров и заклятого врага Дракулы Абрахама Ван Хельсинга. Девушка оживает в будущем и оказывается в мире, полностью порабощенном вампирами и всякой нечестью. Ванесса открывает в себе исключительную силу над захватчиками, доставшуюся ей от отца, и становится единственным человеком, способным объединить разобщенный народ в борьбе с врагом. Впереди героиню сериала «Ван Хельсинг» ждут захватывающие и опасные приключения.
Качество: WEB-DLRip
Формат: AVI
Видео кодек: XviD
Аудио кодек: MP3
Видео: ~ 836 kb/s, 720x400, 23.976
Аудио: 48.0 KHz, 2 ch, 192 kbps

MediaInfo

e:\Сериалы\Ван Хельсинг\Van.Helsing.S01E01.rus.LostFilm.TV.avi
General
Complete name : e:\Сериалы\Ван Хельсинг\Van.Helsing.S01E01.rus.LostFilm.TV.avi
Format : AVI
Format/Info : Audio Video Interleave
File size : 327 MiB
Duration : 44mn 11s
Overall bit rate mode : Variable
Overall bit rate : 1 036 Kbps
Writing application : Nandub v1.0rc2
Writing library : Nandub build 1853/release
Video #0
ID : 0
Format : MPEG-4 Visual
Format profile : Advanced [email protected]
Format settings, BVOP : No
Format settings, QPel : No
Format settings, GMC : No warppoints
Format settings, Matrix : Default (H.263)
Codec ID : XVID
Codec ID/Hint : XviD
Duration : 44mn 11s
Bit rate : 836 Kbps
Width : 720 pixels
Height : 400 pixels
Display aspect ratio : 16:9
Frame rate : 23.976 fps
Color space : YUV
Chroma subsampling : 4:2:0
Bit depth : 8 bits
Scan type : Progressive
Compression mode : Lossy
Bits/(Pixel*Frame) : 0.121
Stream size : 264 MiB (81%)
Writing library : XviD 1.2.1 (UTC 2008-12-04)
Audio #1
ID : 1
Format : MPEG Audio
Format version : Version 1
Format profile : Layer 3
Mode : Joint stereo
Mode extension : MS Stereo
Codec ID : 55
Codec ID/Hint : MP3
Duration : 44mn 11s
Bit rate mode : Variable
Bit rate : 192 Kbps
Channel(s) : 2 channels
Sampling rate : 48.0 KHz
Compression mode : Lossy
Stream size : 59.1 MiB (18%)
Alignment : Aligned on interleaves
Interleave, duration : 24 ms (0.58 video frame)
Interleave, preload duration : 497 ms
Writing library : LAME3.97b
Encoding settings : -m j -V 4 -q 3 -lowpass 18.6 --abr 192

Скриншоты





Последний раз редактировалось: emilsky (2016-12-05 06:24), всего редактировалось 7 раз(а)

Создавать темы 26-Сен-2016 18:40

[Профиль]  [ЛС] 

emilsky ®

Стаж: 7 лет 5 месяцев

Сообщений: 2237

Симпатии: 610

2 и 3 серии!

Создавать темы 04-Окт-2016 09:08

[Профиль]  [ЛС] 

emilsky ®

Стаж: 7 лет 5 месяцев

Сообщений: 2237

Симпатии: 610

4 серия!

Создавать темы 15-Окт-2016 08:05

[Профиль]  [ЛС] 

elbek

Стаж: 6 лет 7 месяцев

Сообщений: 6

когда остальные серии будут

Создавать темы 17-Окт-2016 14:29

[Профиль]  [ЛС] 

emilsky ®

Стаж: 7 лет 5 месяцев

Сообщений: 2237

Симпатии: 610

5 и 6 серии!

Создавать темы 25-Окт-2016 09:17

[Профиль]  [ЛС] 

emilsky ®

Стаж: 7 лет 5 месяцев

Сообщений: 2237

Симпатии: 610

7 и 8 серии!

Создавать темы 10-Ноя-2016 06:19

[Профиль]  [ЛС] 

emilsky ®

Стаж: 7 лет 5 месяцев

Сообщений: 2237

Симпатии: 610

9 и 10 серии!

Создавать темы 27-Ноя-2016 07:41

[Профиль]  [ЛС] 

emilsky ®

Стаж: 7 лет 5 месяцев

Сообщений: 2237

Симпатии: 610

11 серия!

Создавать темы 29-Ноя-2016 06:09

[Профиль]  [ЛС] 

emilsky ®

Стаж: 7 лет 5 месяцев

Сообщений: 2237

Симпатии: 610

12 серия!

Создавать темы 05-Дек-2016 06:24

[Профиль]  [ЛС] 

baxa84

Стаж: 5 лет 9 месяцев

Сообщений: 47

Ван Хельсинг / Van Helsing / Сезон: 1 / Серии: 1-11 из 13 (Майкл Нанкин, Саймон Барри, Дэвид Фрасее, Джейсон Пристли, Аманда Тэппинг) [2016, Ужасы, боевик, драма, WEB-DLRip] (MVO : LostFilm)
на
Ван Хельсинг / Van Helsing / Сезон: 1 / Серии: 1-12 из 13 (Майкл Нанкин, Саймон Барри, Дэвид Фрасее, Джейсон Пристли, Аманда Тэппинг) [2016, Ужасы, боевик, драма, WEB-DLRip] (MVO : LostFilm)

Комментарий от emilsky


окай

Создавать темы 07-Дек-2016 12:13

[Профиль]  [ЛС] 

baxa84

Стаж: 5 лет 9 месяцев

Сообщений: 47

когда 13 серия будут

Создавать темы 26-Дек-2016 10:33

[Профиль]  [ЛС] 
Показать сообщения:    
Ответить на тему

Текущее время: 13-Дек 14:26

Часовой пояс: UTC + 5



Вы не можете начинать темы
Вы не можете отвечать на сообщения
Вы не можете редактировать свои сообщения
Вы не можете удалять свои сообщения
Вы не можете голосовать в опросах
Вы не можете прикреплять файлы к сообщениям
Вы не можете скачивать файлы