Ольга / Сезон: 1 / Серии: 1-20 из 20 (Алексей Нужный, Игорь Волошин) [2016, Комедия, WEB-DLRip]

Ответить на тему
 

emilsky ®

Стаж: 7 лет 3 месяца

Сообщений: 2237

Симпатии: 610

Ольга
Год выпуска: 2016
Производство: Россия
Жанр: Комедия
Продолжительность: ~ 00:23:00
Режиссёр: Алексей Нужный, Игорь Волошин
В ролях: Яна Троянова, Василий Кортуков, Алина Алексеева, Ксения Суркова, Сергей Романович, Максим Костромыкин, Фархад Гусейнов, Борис Дергачев, Александр Шам, Александр Никольский
Описание: Ольга — обычная русская женщина, которая одна «воспитывает» детей от разных браков, отца-алкоголика и бесшабашную сестру. При этом она остаётся жизнерадостной, сохраняет оптимизм и верит в «светлое» будущее.
Качество: WEB-DLRip
Формат: AVI
Видео кодек: XviD
Аудио кодек: MP3
Видео: XviD, 704x400 (16:9), ~ 1900 Кбит/с, 25 кадр/с
Аудио: Русский, MP3, 48000 Гц, 128 Кбит/с, 2 канала (Стерео)

MI

General
Complete name : Ol'ga.s01.e01.2016.WEB-DLRip.avi
Format : AVI
Format/Info : Audio Video Interleave
File size : 330 MiB
Duration : 22mn 15s
Overall bit rate : 2 074 Kbps
Writing application : VirtualDubMod 1.5.10.3 | www.virtualdub-fr.org || (build 2550/release)
Writing library : VirtualDubMod build 2550/release
Video
ID : 0
Format : MPEG-4 Visual
Format profile : Advanced [email protected]
Format settings, BVOP : 1
Format settings, QPel : No
Format settings, GMC : No warppoints
Format settings, Matrix : Custom
Codec ID : XVID
Codec ID/Hint : XviD
Duration : 22mn 15s
Bit rate : 1 936 Kbps
Width : 704 pixels
Height : 400 pixels
Display aspect ratio : 16:9
Frame rate : 25.000 fps
Color space : YUV
Chroma subsampling : 4:2:0
Bit depth : 8 bits
Scan type : Progressive
Compression mode : Lossy
Bits/(Pixel*Frame) : 0.275
Stream size : 308 MiB (93%)
Writing library : XviD 73
Audio
ID : 1
Format : MPEG Audio
Format version : Version 1
Format profile : Layer 3
Codec ID : 55
Codec ID/Hint : MP3
Duration : 22mn 15s
Bit rate mode : Constant
Bit rate : 128 Kbps
Channel(s) : 2 channels
Sampling rate : 48.0 KHz
Compression mode : Lossy
Stream size : 20.4 MiB (6%)
Alignment : Aligned on interleaves
Interleave, duration : 40 ms (1.00 video frame)
Interleave, preload duration : 504 ms
Writing library : LAME3.99r
Encoding settings : -m s -V 4 -q 0 -lowpass 17 -b 128

Скриншоты





Последний раз редактировалось: emilsky (2016-10-06 17:22), всего редактировалось 6 раз(а)

Создавать темы 26-Сен-2016 18:49

[Профиль]  [ЛС] 

emilsky ®

Стаж: 7 лет 3 месяца

Сообщений: 2237

Симпатии: 610

14 серия!

Создавать темы 27-Сен-2016 06:23

[Профиль]  [ЛС] 

emilsky ®

Стаж: 7 лет 3 месяца

Сообщений: 2237

Симпатии: 610

15 серия!

Создавать темы 28-Сен-2016 06:17

[Профиль]  [ЛС] 

Милана Аш

Стаж: 2 года 1 месяц

Сообщений: 1

раздайте

Создавать темы 28-Сен-2016 11:13

[Профиль]  [ЛС] 

emilsky ®

Стаж: 7 лет 3 месяца

Сообщений: 2237

Симпатии: 610

16 серия!

Создавать темы 29-Сен-2016 14:22

[Профиль]  [ЛС] 

emilsky ®

Стаж: 7 лет 3 месяца

Сообщений: 2237

Симпатии: 610

17 серия!

Создавать темы 30-Сен-2016 07:43

[Профиль]  [ЛС] 

emilsky ®

Стаж: 7 лет 3 месяца

Сообщений: 2237

Симпатии: 610

18 серия!

Создавать темы 04-Окт-2016 09:07

[Профиль]  [ЛС] 

emilsky ®

Стаж: 7 лет 3 месяца

Сообщений: 2237

Симпатии: 610

19 серия!

Создавать темы 05-Окт-2016 17:25

[Профиль]  [ЛС] 

Stitch1990

Стаж: 5 лет 9 месяцев

Сообщений: 67

emilsky, 3 процента, можешь раздать?

Создавать темы 05-Окт-2016 18:26

[Профиль]  [ЛС] 

emilsky ®

Стаж: 7 лет 3 месяца

Сообщений: 2237

Симпатии: 610

20 серия, финал сезона!

Создавать темы 06-Окт-2016 17:22

[Профиль]  [ЛС] 

jenekk

Стаж: 2 года 5 месяцев

Сообщений: 4

Симпатии: 3

простите а когда выйдет продолжение??? классный сериал!!!

Создавать темы 12-Фев-2017 23:10

[Профиль]  [ЛС] 
Показать сообщения:    
Ответить на тему

Текущее время: 18-Окт 14:16

Часовой пояс: UTC + 5



Вы не можете начинать темы
Вы не можете отвечать на сообщения
Вы не можете редактировать свои сообщения
Вы не можете удалять свои сообщения
Вы не можете голосовать в опросах
Вы не можете прикреплять файлы к сообщениям
Вы не можете скачивать файлы