База Куантико / Quantico / Сезон: 2 / Серии: 1-3 из 22 (Марк Манден) [2016, Детектив, драма, триллер, WEB-DLRip] (MVO : BaibaKo) (Original)

Ответить на тему
 

Sunnat1999 ®

Стаж: 4 года 9 месяцев

Сообщений: 756

Симпатии: 416

База Куантико / QuanticoСезон: 2 Серии: 1-3 из 22-- Год выпуска: 2016
Страна: США, Mark Gordon Company, Random Acts Entertainmen
Жанр: Детектив, драма, триллер
Продолжительность: 1 х ~ 00:43:00-Перевод: Профессиональный многоголосый закадровый [BaibaKo]
Русские субтитры: нет
Режиссёр: Марк Манден-В ролях: Приянка Чопра, Онжаню Эллис, Джейк МакЛафлин, Ясмин Эл Массри, Джоанна Э. Брэдди, Тейт Эллингтон, Грэхэм Роджерс, Анабель Акоста, Анна Хайа, Диллон Мэтьюз-Описание: По оперативным данным, один из молодых сотрудников ФБР, проходивших обучение на базе Куантико в штате Виргиния, связан с международным террористическим подпольем. Под подозрением оказывается группа новобранцев, в числе которых — перспективный агент Алекс Пэрриш.-Доп. информация: 
-Ссылка на предыдущие и альтернативные раздачи: http://tas-ix.me/viewtopic.php?t=111370&spmode=full#seeders-Качество: WEB-DLRip
Формат: AVI
Видео кодек: XviD
Аудио кодек: MP3
Видео: XviD Advanced [email protected] 1497 Кбит/сек 720x400 (1.778) 23.976 кадра/сек
Аудио: MPEG-1 Audio layer 3 192 Кбит/сек 2 канала 48,0 КГц
Аудио 2: MPEG-1 Audio layer 3 192 Кбит/сек 2 канала 48,0 КГц
--ВНИМАНИЕ! РАЗДАЧА ВЕДЁТСЯ ПУТЁМ ДОБАВЛЕНИЯ НОВЫХ СЕРИЙ!
Добавлена 3 серия. Обновите пожалуйста торрент!

Как обновить торрент

Когда раздача ведётся путём добавления новых серий, при каждом добавлении создётся новый торрент. Чтобы начать докачку новой серии, пользователям необходимо сделать следующее:
(1) остановить скачивание,
(2) удалить старый торрент у себя из клиента (старые серии удалять не надо),
(3) скачать новый торрент и запустить его у себя в клиенте вместо старого, при этом указать клиенту путь в старую папку, куда и должно происходить скачивание новых серий.
Ваш клиент при этом должен произвести хеширование (проверку) старой папки (если не производит сам - помогите ему сделать это), и будет докачивать только те серии, которых у вас ещё нет. Старые серии при этом не удаляются, а продолжают раздаваться!
Eсли вы уже удалили старые серии, то предотвратить повторную закачку старых серий можно, отжав галочку в соответсвующих местах при запуске нового торрента. По возможности, желательно не удалять старые серии как можно дольше, чтобы релизёр не столько продолжал раздавать старые серии, а смог сконцентрироваться на новых.

MediaInfo

General
Complete name : \Quantico.s02.WEB-DLRip.XviD.Rus.Eng.BaibaKo\Quantico.s02e01.WEB-DLRip.XviD.Rus.Eng.BaibaKo.tv.avi
Format : AVI
Format/Info : Audio Video Interleave
File size : 586 MiB
Duration : 43mn 22s
Overall bit rate : 1 888 Kbps
Video
ID : 0
Format : MPEG-4 Visual
Format profile : Advanced [email protected]
Format settings, BVOP : 2
Format settings, QPel : No
Format settings, GMC : No warppoints
Format settings, Matrix : Default (H.263)
Codec ID : XVID
Codec ID/Hint : XviD
Duration : 43mn 22s
Bit rate : 1 497 Kbps
Width : 720 pixels
Height : 400 pixels
Display aspect ratio : 16:9
Frame rate : 23.976 fps
Color space : YUV
Chroma subsampling : 4:2:0
Bit depth : 8 bits
Scan type : Progressive
Compression mode : Lossy
Bits/(Pixel*Frame) : 0.217
Stream size : 465 MiB (79%)
Writing library : XviD 65
Audio #1
ID : 1
Format : MPEG Audio
Format version : Version 1
Format profile : Layer 3
Mode : Joint stereo
Mode extension : MS Stereo
Codec ID : 55
Codec ID/Hint : MP3
Duration : 43mn 22s
Bit rate mode : Constant
Bit rate : 192 Kbps
Channel(s) : 2 channels
Sampling rate : 48.0 KHz
Compression mode : Lossy
Stream size : 59.6 MiB (10%)
Alignment : Aligned on interleaves
Interleave, duration : 167 ms (4.00 video frames)
Interleave, preload duratio : 216 ms
Title : Quantico.s02e01.Russian
Writing library : LAME3.99r
Encoding settings : -m j -V 4 -q 2 -lowpass 18.6 -b 192
Audio #2
ID : 2
Format : MPEG Audio
Format version : Version 1
Format profile : Layer 3
Mode : Joint stereo
Codec ID : 55
Codec ID/Hint : MP3
Duration : 43mn 22s
Bit rate mode : Constant
Bit rate : 192 Kbps
Channel(s) : 2 channels
Sampling rate : 48.0 KHz
Compression mode : Lossy
Stream size : 59.6 MiB (10%)
Alignment : Aligned on interleaves
Interleave, duration : 167 ms (4.00 video frames)
Interleave, preload duratio : 216 ms
Title : Quantico.s02e01.English
Writing library : LAME3.99r
Encoding settings : -m j -V 4 -q 2 -lowpass 18.6 -b 192
Скриншоты:


Последний раз редактировалось: Sunnat1999 (2016-10-25 15:34), всего редактировалось 4 раз(а)

Создавать темы 28-Сен-2016 11:02

[Профиль]  [ЛС] 

Sunnat1999 ®

Стаж: 4 года 9 месяцев

Сообщений: 756

Симпатии: 416

Добавлена 2 серия. Обновите пожалуйста торрент!

Создавать темы 04-Окт-2016 16:07

[Профиль]  [ЛС] 

Sunnat1999 ®

Стаж: 4 года 9 месяцев

Сообщений: 756

Симпатии: 416

Добавлена 3 серия. Обновите пожалуйста торрент!

Создавать темы 25-Окт-2016 15:36

[Профиль]  [ЛС] 
Показать сообщения:    
Ответить на тему

Текущее время: 17-Дек 03:42

Часовой пояс: UTC + 5



Вы не можете начинать темы
Вы не можете отвечать на сообщения
Вы не можете редактировать свои сообщения
Вы не можете удалять свои сообщения
Вы не можете голосовать в опросах
Вы не можете прикреплять файлы к сообщениям
Вы не можете скачивать файлы