Первый мститель: Противостояние / Captain America: Civil War (Энтони Руссо, Джо Руссо) [2016, США, Фантастика, боевик, приключения, HDRip] (Dub : iTunes)

Ответить на тему
 

UZM ®

Стаж: 5 лет 6 месяцев

Сообщений: 169

Симпатии: 189

Первый мститель: Противостояние / Captain America: Civil War
Страна: США
Жанр: Фантастика, боевик, приключения
Год выпуска: 2016
Продолжительность: 02:27:42
Перевод: Профессиональный (полное дублирование)
Доп. инфо о переводе iTunes
Cубтитры: нет
Режиссер: Энтони Руссо, Джо Руссо
В ролях: Крис Эванс, Роберт Дауни мл., Скарлетт Йоханссон, Себастьян Стэн, Энтони Маки, Дон Чидл, Джереми Реннер, Чэдвик Боузмэн, Пол Беттани, Элизабет Олсен
Описание: Мстители под руководством Капитана Америки оказываются участниками разрушительного инцидента, имеющего международный масштаб. Эти события заставляют правительство задуматься над тем, чтобы начать регулировать действия всех людей с особыми способностями, введя «Акт о регистрации супергероев», вынуждая их подчиняться ООН.
Видя в этом договоре нарушение гражданских прав и плевок на всё, во что он верит, Стив Роджерс открыто восстаёт против нового режима, ведя за собой группу героев, поддерживающих его мнение. В свою очередь, Тони Старк видит смысл в новом договоре и становится во главе героев, поддерживающих его. Всё это приводит к неизбежному расколу Мстителей и войне между сторонами. Сражаясь друг с другом, Старк и Роджерс не знают о том, что таинственный Барон Земо уже строит свои собственные планы, воспользовавшись расколом величайших героев Земли.
Доп. информация: Фильм основан на комиксе «Гражданская война» («Civil War»).
В конце последнего съемочного дня Себастьян Стэн и Энтони Маки рванули друг с другом наперегонки, будучи еще в своих супергеройских костюмах.
Во время прыжка Зимнего солдата с крыши во время одной из сцен на общем плане видно, как персонаж заранее группируется с целью совершить кувырок и уменьшить удар от падения. Однако, в предыдущем плане «из-за спины» заметно, что Баки не группируется для кувырка практически до момента соприкосновения с крышей (план держат практически до соприкосновения с крышей, а следующий план как бы отматывает время на пару секунд назад). Такое приземление, к слову, привело бы к перелому ног.
Качество видео: HDRip
Формат видео: AVI

Видео: Xvid 720x304 23.976fps 1 220 Kbps
Аудио: Dolby, AC3 48,0Hz stereo 192kbps

MediaInfo

General
Complete name : G:\2016 й кино\Captain.America.Civil.War.2016.HDRip.1.46Gb.D.MegaPeer.avi
Format : AVI
Format/Info : Audio Video Interleave
File size : 1.46 GiB
Duration : 2h 27mn
Overall bit rate : 1 419 Kbps
Video
ID : 0
Format : MPEG-4 Visual
Format profile : Advanced [email protected]
Format settings, BVOP : Yes
Format settings, QPel : No
Format settings, GMC : No warppoints
Format settings, Matrix : Custom
Codec ID : XVID
Codec ID/Hint : XviD
Duration : 2h 27mn
Bit rate : 1 220 Kbps
Width : 720 pixels
Height : 304 pixels
Display aspect ratio : 2.35:1
Frame rate : 23.976 fps
Color space : YUV
Chroma subsampling : 4:2:0
Bit depth : 8 bits
Scan type : Progressive
Compression mode : Lossy
Bits/(Pixel*Frame) : 0.232
Stream size : 1.26 GiB (86%)
Writing library : XviD 73
Audio
ID : 1
Format : AC-3
Format/Info : Audio Coding 3
Mode extension : CM (complete main)
Format settings, Endianness : Big
Codec ID : 2000
Duration : 2h 27mn
Bit rate mode : Constant
Bit rate : 192 Kbps
Channel(s) : 2 channels
Channel positions : Front: L R
Sampling rate : 48.0 KHz
Bit depth : 16 bits
Compression mode : Lossy
Stream size : 203 MiB (14%)
Alignment : Aligned on interleaves
Interleave, duration : 64 ms (1.53 video frames)
Interleave, preload duration : 192 ms
Title : iTunes

Скриншоты

,
,
,


Последний раз редактировалось: UZM (2016-09-29 21:26), всего редактировалось 1 раз

Создавать темы 29-Сен-2016 21:16

[Профиль]  [ЛС] 
Показать сообщения:    
Ответить на тему

Текущее время: 14-Дек 21:59

Часовой пояс: UTC + 5



Вы не можете начинать темы
Вы не можете отвечать на сообщения
Вы не можете редактировать свои сообщения
Вы не можете удалять свои сообщения
Вы не можете голосовать в опросах
Вы не можете прикреплять файлы к сообщениям
Вы не можете скачивать файлы