[Nicki Minaj - Anaconda, 2014, U.S.A, R&B/cоул, Хип-хоп/рэп, HDRip]

Ответить на тему
 

ИЛЬЯС АЛЛАЯРОВ ®

Стаж: 2 года 3 месяца

Сообщений: 13

Симпатии: 2

Nicki Minaj - Anaconda
Страна: U.S.A
Жанр: R&B/cоул, Хип-хоп/рэп
Год выпуска: 2014
Продолжительность: 00:04:50
Качество видео: HDRip
Формат видео: AVI
Видео: DivX 5 1920x1080 23.976fps 9300kbps
Аудио: MP3 44100Hz stereo 128kbps

MediaInfo

Format : AVI
Format/Info : Audio Video Interleave
File size : 326 MiB
Duration : 4mn 49s
Overall bit rate : 9 437 Kbps
Writing application : Lavf51.12.1
Video
ID : 0
Format : MPEG-4 Visual
Format profile : [email protected]
Format settings, BVOP : No
Format settings, QPel : No
Format settings, GMC : No warppoints
Format settings, Matrix : Default (H.263)
Codec ID : DX50
Codec ID/Hint : DivX 5
Duration : 4mn 49s
Bit rate : 9 299 Kbps
Width : 1 920 pixels
Height : 1 080 pixels
Display aspect ratio : 16:9
Frame rate : 23.976 fps
Color space : YUV
Chroma subsampling : 4:2:0
Bit depth : 8 bits
Scan type : Progressive
Compression mode : Lossy
Bits/(Pixel*Frame) : 0.187
Stream size : 321 MiB (99%)
Writing library : Lavc51.40.4
Audio
ID : 1
Format : MPEG Audio
Format version : Version 1
Format profile : Layer 3
Mode : Joint stereo
Mode extension : MS Stereo
Codec ID : 55
Codec ID/Hint : MP3
Duration : 4mn 49s
Bit rate mode : Constant
Bit rate : 128 Kbps
Channel(s) : 2 channels
Sampling rate : 44.1 KHz
Compression mode : Lossy
Stream size : 4.42 MiB (1%)
Alignment : Aligned on interleaves
Interleave, duration : 26 ms (0.63 video frame)
Writing library : LAME3.97

Скриншоты

Создавать темы 29-Сен-2016 21:21

[Профиль]  [ЛС] 
Показать сообщения:    
Ответить на тему

Текущее время: 23-Авг 05:27

Часовой пояс: UTC + 5



Вы не можете начинать темы
Вы не можете отвечать на сообщения
Вы не можете редактировать свои сообщения
Вы не можете удалять свои сообщения
Вы не можете голосовать в опросах
Вы не можете прикреплять файлы к сообщениям
Вы не можете скачивать файлы