Допрос / Interrogation (Стивен Рейнольдс) [2016, США, Боевик, триллер, HDRip] (MVO : Синема УС)

Ответить на тему
 

UZM ®

Стаж: 5 лет 2 месяца

Сообщений: 169

Симпатии: 189

Допрос / Interrogation
Страна: США
Жанр: Боевик, триллер
Год выпуска: 2016
Продолжительность: 01:26:16
Перевод: Любительский многоголосый
Доп. инфо о переводе Синема УС
Cубтитры: нет
Режиссер: Стивен Рейнольдс
В ролях: Адам Коуплэнд, Джулия Андерсон, К.Дж. Перри, Патрик Сабонгуй, Эрика Кэрролл, Митчелл Каммен, Майкл Роджерс, Яна Мицула, Патрик Спарлинг, Сиенна Бон
Описание: После того ,как ФБР получает сообщение об угрозе, спецагент Лукас Нолан вступает в игру с опасным преступником и пытается остановить этого хитрого злодея. Времени у ФБР не так много , а на кону стоят жизни тысяч людей.
Доп. информация: Присутствует реклама!
Качество видео: HDRip
Формат видео: AVI
Видео: Xvid 720x400 23.976fps 1813 Kbps
Аудио: Dolby, AC3 48,0Hz stereo 448kbps

MediaInfo

General
Complete name : G:\2016 й кино\Interrogation.2016.P.HDRip.14OOMB_KOSHARA.avi
Format : AVI
Format/Info : Audio Video Interleave
File size : 1.37 GiB
Duration : 1h 26mn
Overall bit rate : 2 270 Kbps
Writing application : VirtualDubMod 1.5.10.2 (build 2540/release)
Writing library : VirtualDubMod build 2540/release
Video
ID : 0
Format : MPEG-4 Visual
Format profile : Advanced [email protected]
Format settings, BVOP : Yes
Format settings, QPel : No
Format settings, GMC : No warppoints
Format settings, Matrix : Custom
Codec ID : XVID
Codec ID/Hint : XviD
Duration : 1h 26mn
Bit rate : 1 813 Kbps
Width : 720 pixels
Height : 400 pixels
Display aspect ratio : 16:9
Frame rate : 23.976 fps
Color space : YUV
Chroma subsampling : 4:2:0
Bit depth : 8 bits
Scan type : Progressive
Compression mode : Lossy
Bits/(Pixel*Frame) : 0.263
Stream size : 1.09 GiB (80%)
Writing library : XviD 1.2.1 (UTC 2008-12-04)
Audio
ID : 1
Format : AC-3
Format/Info : Audio Coding 3
Mode extension : CM (complete main)
Format settings, Endianness : Big
Codec ID : 2000
Duration : 1h 26mn
Bit rate mode : Constant
Bit rate : 448 Kbps
Channel(s) : 2 channels
Channel positions : Front: L R
Sampling rate : 48.0 KHz
Bit depth : 16 bits
Compression mode : Lossy
Stream size : 276 MiB (20%)
Alignment : Split accross interleaves
Interleave, duration : 42 ms (1.00 video frame)
Interleave, preload duration : 500 ms

Скриншот c названием фильма

Скриншоты

,
,
,


Последний раз редактировалось: UZM (2016-10-01 08:17), всего редактировалось 1 раз

Создавать темы 30-Сен-2016 19:56

[Профиль]  [ЛС] 

Morphing

Стаж: 5 лет 1 месяц

Сообщений: 211

Симпатии: 37

UZM, Перевод: Профессиональный (многоголосый закадровый) Перевод: Любительский многоголосый (Синема УС)

Создавать темы 01-Окт-2016 07:44

[Профиль]  [ЛС] 

UZM ®

Стаж: 5 лет 2 месяца

Сообщений: 169

Симпатии: 189

Спасибо за поправку!

Комментарий от ruhal


не за что

Создавать темы 01-Окт-2016 19:38

[Профиль]  [ЛС] 
Показать сообщения:    
Ответить на тему

Текущее время: 18-Авг 21:10

Часовой пояс: UTC + 5



Вы не можете начинать темы
Вы не можете отвечать на сообщения
Вы не можете редактировать свои сообщения
Вы не можете удалять свои сообщения
Вы не можете голосовать в опросах
Вы не можете прикреплять файлы к сообщениям
Вы не можете скачивать файлы