Бал монстров / Monster's Ball (Роберто Шэфер / Roberto Schaefer) [2001, США, драма, мелодрама, HDRip-AVC] (MVO) (Sub Rus, Eng + Original Eng)

Ответить на тему
 

kuzen ®

Стаж: 4 года 2 месяца

Сообщений: 17

Симпатии: 6

Бал монстров / Monster's Ball
Страна: США
Жанр: драма, мелодрама
Год выпуска: 2001
Продолжительность: 01:52:43
Перевод: Профессиональный (многоголосый закадровый)
Cубтитры: русские / английские
Режиссер: Роберто Шэфер / Roberto Schaefer
В ролях: Билли Боб Торнтон
Холли Берри
Питер Бойл
Хит Леджер
Шон ’Пи Дидди’ Комбс
Ясин Бей
Тейлор Симпсон
Гэбриэлль Уитчер
Эмбер Рулс
Чарльз Кауэн мл.
Описание: Хэнк гордится своей редкой профессией и рассчитывает, что его сын Сонни продолжит семейную династию. Вот уже несколько поколений мужчины в их семье работают палачами, включая во время казни рубильник электрического стула.
Доп. информация: В mediainfo хоть и указаны 3 дрожки (+русская, +английская), работают некорректно (по крайней мере в classic media player, kmp player, windows media player). В kmp player запирается картинка, classic media player дорожки не отображаются
Качество видео: HDRip - AVC
Формат видео: MKV
Видео: V_MPEG4/ISO/AVC, 1 264px : 536px, 23.976 fps, 2 412 Kbps
Аудио 1: AC-3, 48.0 KHz, 384 Kbps, 6 channels, Russian
Аудио 2: AC-3, 48.0 KHz, 448 Kbps, 6 channels, Russian
Аудио 3: AC-3, 48.0 KHz, 448 Kbps, 6 channels, English

MediaInfo

eneral
Unique ID : 200122650862655903843487817076278850819 (0x968E38783C63671CBE6E86B6F6A47503)
Complete name : E:\torrent\monsters_ball_2001.mkv
Format : Matroska
Format version : Version 2
File size : 2.91 GiB
Duration : 1h 52mn
Overall bit rate : 3 693 Kbps
Encoded date : UTC 2011-01-01 10:13:44
Writing application : mkvmerge v4.4.0 ('Die Wiederkehr') сборка от Oct 31 2010 21:52:48
Writing library : libebml v1.0.0 + libmatroska v1.0.0
Video
ID : 1
Format : AVC
Format/Info : Advanced Video Codec
Format profile : [email protected]
Format settings, CABAC : Yes
Format settings, ReFrames : 11 frames
Codec ID : V_MPEG4/ISO/AVC
Duration : 1h 52mn
Bit rate : 2 412 Kbps
Width : 1 264 pixels
Height : 536 pixels
Display aspect ratio : 2.35:1
Frame rate mode : Constant
Frame rate : 23.976 fps
Color space : YUV
Chroma subsampling : 4:2:0
Bit depth : 8 bits
Scan type : Progressive
Bits/(Pixel*Frame) : 0.148
Stream size : 1.84 GiB (63%)
Title : Monster's.Ball.2001.BDRip-AVC.tRuAVC.
Writing library : x264 core 112 r1834 a51816a
Encoding settings : cabac=1 / ref=11 / deblock=1:-2:-2 / analyse=0x3:0x133 / me=umh / subme=10 / psy=1 / psy_rd=1.00:0.00 / mixed_ref=1 / me_range=32 / chroma_me=1 / trellis=2 / 8x8dct=1 / cqm=0 / deadzone=21,11 / fast_pskip=0 / chroma_qp_offset=-2 / threads=6 / sliced_threads=0 / nr=0 / decimate=0 / interlaced=0 / constrained_intra=0 / bframes=11 / b_pyramid=2 / b_adapt=2 / b_bias=0 / direct=3 / weightb=1 / open_gop=0 / weightp=2 / keyint=250 / keyint_min=23 / scenecut=40 / intra_refresh=0 / rc=2pass / mbtree=0 / bitrate=2412 / ratetol=1.0 / qcomp=0.60 / qpmin=10 / qpmax=51 / qpstep=4 / cplxblur=20.0 / qblur=0.5 / ip_ratio=1.40 / pb_ratio=1.30 / aq=2:1.00
Language : English
Default : Yes
Forced : No
Matrix coefficients : BT.709
Audio #1
ID : 2
Format : AC-3
Format/Info : Audio Coding 3
Mode extension : CM (complete main)
Format settings, Endianness : Big
Codec ID : A_AC3
Duration : 1h 52mn
Bit rate mode : Constant
Bit rate : 384 Kbps
Channel(s) : 6 channels
Channel positions : Front: L C R, Side: L R, LFE
Sampling rate : 48.0 KHz
Bit depth : 16 bits
Compression mode : Lossy
Stream size : 310 MiB (10%)
Title : MVO (LDV)
Language : Russian
Default : Yes
Forced : No
Audio #2
ID : 3
Format : AC-3
Format/Info : Audio Coding 3
Mode extension : CM (complete main)
Format settings, Endianness : Big
Codec ID : A_AC3
Duration : 1h 52mn
Bit rate mode : Constant
Bit rate : 448 Kbps
Channel(s) : 6 channels
Channel positions : Front: L C R, Side: L R, LFE
Sampling rate : 48.0 KHz
Bit depth : 16 bits
Compression mode : Lossy
Stream size : 361 MiB (12%)
Title : MVO (R5)
Language : Russian
Default : No
Forced : No
Audio #3
ID : 4
Format : AC-3
Format/Info : Audio Coding 3
Mode extension : CM (complete main)
Format settings, Endianness : Big
Codec ID : A_AC3
Duration : 1h 52mn
Bit rate mode : Constant
Bit rate : 448 Kbps
Channel(s) : 6 channels
Channel positions : Front: L C R, Side: L R, LFE
Sampling rate : 48.0 KHz
Bit depth : 16 bits
Compression mode : Lossy
Stream size : 361 MiB (12%)
Title : Original
Language : English
Default : No
Forced : No
Text #1
ID : 5
Format : UTF-8
Codec ID : S_TEXT/UTF8
Codec ID/Info : UTF-8 Plain Text
Title : Русские
Language : Russian
Default : No
Forced : No
Text #2
ID : 6
Format : UTF-8
Codec ID : S_TEXT/UTF8
Codec ID/Info : UTF-8 Plain Text
Title : Английские №1
Language : English
Default : No
Forced : No
Text #3
ID : 7
Format : UTF-8
Codec ID : S_TEXT/UTF8
Codec ID/Info : UTF-8 Plain Text
Title : Английские №2
Language : English
Default : No
Forced : No

Скриншот c названием фильма

Скриншоты





Последний раз редактировалось: kuzen (2016-10-03 08:22), всего редактировалось 2 раз(а)

Создавать темы 02-Окт-2016 23:01

[Профиль]  [ЛС] 

Топик был перенесен из форума Фильмы до 2010 в форум HD-AVC
ruhal

Создавать темы 03-Окт-2016 05:55

 

ruhal

Стаж: 2 года 5 месяцев

Сообщений: 1181

Симпатии: 1836

Еще две звуковые дорожки допишите в тех. данных!

Создавать темы 03-Окт-2016 06:01

[Профиль]  [ЛС] 

kuzen ®

Стаж: 4 года 2 месяца

Сообщений: 17

Симпатии: 6

985388Еще две звуковые дорожки допишите в тех. данных!
Дописал аудиодорожки

Создавать темы 03-Окт-2016 08:24

[Профиль]  [ЛС] 

alexey.555

Стаж: 5 лет 5 месяцев

Сообщений: 137

Симпатии: 22

Спасибки, давно хотел посмотреть

Создавать темы 03-Окт-2016 13:20

[Профиль]  [ЛС] 

kuzen ®

Стаж: 4 года 2 месяца

Сообщений: 17

Симпатии: 6



Видать без ip фильтра не обойтись

Создавать темы 03-Окт-2016 20:14

[Профиль]  [ЛС] 

djm3

Стаж: 6 лет 8 месяцев

Сообщений: 55

Симпатии: 7

Да, фильм помню 15 лет назад смотрел...Холли Берри там неплохо исполнила:
Пришла к белому мужику легла на диван
Мужик типа в непонятках:
"Скажи мне что ты хочешь?"
Она в ответ ноги раздвигает:
"Я хочу чтоб мне было хорошо... О-о! А-а! Я хочу чтоб мне было хорошо!!"
Хит Леджер ещё живой молодой тоже исполняет - к нему приходит телка, поворачивается к нему спиной, наклоняется говорит "давай, только осторожно а то там все натерто" и он как дает! а потом говорит ей "деньги возьми на тумбочке" она берет и уходит.
Такие в фильме жесткие приколы.

Создавать темы 13-Окт-2016 21:51

[Профиль]  [ЛС] 
Показать сообщения:    
Ответить на тему

Текущее время: 27-Сен 00:02

Часовой пояс: UTC + 5



Вы не можете начинать темы
Вы не можете отвечать на сообщения
Вы не можете редактировать свои сообщения
Вы не можете удалять свои сообщения
Вы не можете голосовать в опросах
Вы не можете прикреплять файлы к сообщениям
Вы не можете скачивать файлы