Петросян-шоу-11. (эфир 2016.09.16) [2016 г., Юмор, SATRip]

Ответить на тему
 

фазилов ®

Стаж: 3 года 10 месяцев

Сообщений: 310

Симпатии: 344

ПЕТРОСЯН-ШОУ-11 (эфир 2016.09.16 )
Год выпуска: 2016
Страна: Россия
Жанр: Юмор
Продолжительность: 1:35:09
Описание: На телеканале "Россия" - новое яркое юмористическое "Петросян-шоу"! (Старое название передачи- "Кривое зеркало")
Мэтр эстрады выступит в роли не только артиста, но и ведущего программы. На сцене - любимые артисты и новые исполнители.
Откроет премьерный выпуск очень веселая сценка-пародия на современный кинематограф, в которой Александр Морозов, Михаил Смирнов, Карен Аванесян, Михаил Вашуков и другие артисты перевоплотятся в работников кинобизнеса.
Большая музыкально-пародийная сцена представит зрителям неординарные таланты новых артистов. Алексей Буховцов откроет постоянную рубрику «Читаем Петросяна», где участники шоу читают известные и до сих пор актуальные монологи, которые в свое время исполнял Евгений Петросян.
Гостями шоу станут иллюзионист Антон Красильников и актриса Галина Стаханова, которая в паре с Михаилом Смирновым разыграет ироничную сценку.

Качество: SATRip
Формат: AVI
Видео кодек: XviD
Аудио кодек: AC3
Видео: 720x464 (1.55:1), 25 fps, XviD build 50 ~1798 kbps avg, 0.22 bit/pixel
Аудио: 48 kHz, AC3 Dolby Digital, 2/0 (L,R) ch, ~192 kbps

Mediainfo

Полное имя : D:\Мои релизы\Петросян-шоу-11. 2016.09.16.avi
Формат : AVI
Формат/Информация : Audio Video Interleave
Размер файла : 1,33 Гбайт
Продолжительность : 1 ч. 35 м.
Общий поток : 2000 Кбит/сек
Программа кодирования : VirtualDubMod 1.5.10.3 | www.virtualdub-fr.org || (build 2550/release)
Библиотека кодирования : VirtualDubMod build 2550/release
Видео
Идентификатор : 0
Формат : MPEG-4 Visual
Профиль формата : Advanced [email protected]
Параметр BVOP формата : 2
Параметр QPel формата : Нет
Параметр GMC формата : Без точки перехода
Параметр матрицы формата : Default (H.263)
Идентификатор кодека : XVID
Идентификатор кодека/Подсказка : XviD
Продолжительность : 1 ч. 35 м.
Битрейт : 1799 Кбит/сек
Ширина : 720 пикселей
Высота : 464 пикселя
Соотношение сторон : 16:10
Частота кадров : 25,000 кадров/сек
Цветовое пространство : YUV
Субдискретизация насыщенности : 4:2:0
Битовая глубина : 8 бит
Тип развёртки : Прогрессивная
Метод сжатия : С потерями
Бит/(Пиксели*Кадры) : 0.215
Размер потока : 1,20 Гбайт (90%)
Библиотека кодирования : XviD 1.2.1 (UTC 2008-12-04)
Аудио
Идентификатор : 1
Формат : AC-3
Формат/Информация : Audio Coding 3
Расширение режима : CM (complete main)
Параметр Endianness формата : Big
Идентификатор кодека : 2000
Продолжительность : 1 ч. 35 м.
Вид битрейта : Постоянный
Битрейт : 192 Кбит/сек
Каналы : 2 канала
Расположение каналов : Front: L R
Частота : 48,0 КГц
Частота кадров : 31,250 кадров/сек (1536 spf)
Метод сжатия : С потерями
Размер потока : 131 Мбайт (10%)
Выравнивание : Разделение по промежуткам
Продолжительность промежутка : 40 мс. (1,00 видеокадр)
Время предзагрузки промежутка : 500 мс.

Скриншоты


Создавать темы 04-Окт-2016 16:48

[Профиль]  [ЛС] 

фазилов ®

Стаж: 3 года 10 месяцев

Сообщений: 310

Симпатии: 344

ai Возможны перерывы в раздаче в связи с частыми отключениями электроэнергии ai

Создавать темы 04-Окт-2016 17:52

[Профиль]  [ЛС] 
Показать сообщения:    
Ответить на тему

Текущее время: 13-Дек 14:23

Часовой пояс: UTC + 5



Вы не можете начинать темы
Вы не можете отвечать на сообщения
Вы не можете редактировать свои сообщения
Вы не можете удалять свои сообщения
Вы не можете голосовать в опросах
Вы не можете прикреплять файлы к сообщениям
Вы не можете скачивать файлы