До встречи с тобой / Me Before You (Теа Шэррок) [2016, США, Драма, BDRip] (Dub : BD CEE)

Ответить на тему
 

UZM ®

Стаж: 5 лет 4 месяца

Сообщений: 169

Симпатии: 189

До встречи с тобой / Me Before You
Страна: США, Великобритания
Жанр: Драма
Год выпуска: 2016
Продолжительность: 01:50:15
Перевод: Профессиональный (полное дублирование) Доп. инфо о переводе BD CEE
Cубтитры: нет
Режиссер: Теа Шэррок / Thea Sharrock
В ролях: Эмилия Кларк, Сэм Клафлин, Дженна Коулман, Чарльз Дэнс, Мэттью Льюис, Ванесса Кирби, Джоанна Ламли, Джанет МакТир, Стивен Пикок, Брендан Койл
Описание: Лу Кларк знает, сколько шагов от автобусной остановки до ее дома. Она знает, что ей очень нравится работа в кафе и что, скорее всего, она не любит своего бойфренда Патрика. Но Лу не знает, что вот-вот потеряет свою работу и что в ближайшем будущем ей понадобятся все силы, чтобы преодолеть свалившиеся на нее проблемы.
Уилл Трейнор знает, что сбивший его мотоциклист отнял у него желание жить. И он точно знает, что надо сделать, чтобы положить конец всему этому. Но он не знает, что Лу скоро ворвется в его мир буйством красок. И они оба не знают, что навсегда изменят жизнь друг друга.
Качество видео: BDRip
Формат видео: AVI
Видео: Xvid 720x304 23.976fps 1432 Kbps
Аудио: Dolby, AC3 48,0Hz 6ch 448kbps

MediaInfo

General
Complete name : G:\2016 й кино\Me.Before.You.2016.BDRip.1.45.Dub.MegaPeer.avi
Format : AVI
Format/Info : Audio Video Interleave
File size : 1.45 GiB
Duration : 1h 50mn
Overall bit rate : 1 887 Kbps
Video
ID : 0
Format : MPEG-4 Visual
Format profile : Advanced [email protected]
Format settings, BVOP : Yes
Format settings, QPel : No
Format settings, GMC : No warppoints
Format settings, Matrix : Custom
Codec ID : XVID
Codec ID/Hint : XviD
Duration : 1h 50mn
Bit rate : 1 432 Kbps
Width : 720 pixels
Height : 304 pixels
Display aspect ratio : 2.35:1
Frame rate : 23.976 fps
Color space : YUV
Chroma subsampling : 4:2:0
Bit depth : 8 bits
Scan type : Progressive
Compression mode : Lossy
Bits/(Pixel*Frame) : 0.273
Stream size : 1.10 GiB (76%)
Writing library : XviD 73
Audio
ID : 1
Format : AC-3
Format/Info : Audio Coding 3
Mode extension : CM (complete main)
Format settings, Endianness : Big
Codec ID : 2000
Duration : 1h 50mn
Bit rate mode : Constant
Bit rate : 448 Kbps
Channel(s) : 6 channels
Channel positions : Front: L C R, Side: L R, LFE
Sampling rate : 48.0 KHz
Bit depth : 16 bits
Compression mode : Lossy
Stream size : 353 MiB (24%)
Alignment : Aligned on interleaves
Interleave, duration : 64 ms (1.53 video frames)
Interleave, preload duration : 192 ms
Title : BD CEE

Скриншот c названием фильма

Скриншоты

,
,
,


Последний раз редактировалось: UZM (2016-10-05 21:28), всего редактировалось 1 раз

Создавать темы 05-Окт-2016 20:22

[Профиль]  [ЛС] 
Показать сообщения:    
Ответить на тему

Текущее время: 27-Сен 00:11

Часовой пояс: UTC + 5



Вы не можете начинать темы
Вы не можете отвечать на сообщения
Вы не можете редактировать свои сообщения
Вы не можете удалять свои сообщения
Вы не можете голосовать в опросах
Вы не можете прикреплять файлы к сообщениям
Вы не можете скачивать файлы