Гений / Genius (Майкл Грандейдж / Michael Grandage) [2016, Великобритания, США, Драма, биография, WEB-DLRip] (Dub : чистый звук)

Ответить на тему
 

UZM ®

Стаж: 5 лет 4 месяца

Сообщений: 169

Симпатии: 189

Гений / Genius
Страна: Великобритания, США
Жанр: Драма, биография
Год выпуска: 2016
Продолжительность: 01:43:56
Перевод: Профессиональный (полное дублирование) Доп. инфо о переводе чистый звук
Cубтитры: нет
Режиссер: Майкл Грандейдж / Michael Grandage
В ролях: Колин Фёрт, Николь Кидман, Лора Линни, Джуд Лоу, Гай Пирс, Доминик Уэст, Ванесса Кирби, Марк Арнольд, Джейн Перри, Кэтерин Кингсли
Описание: История о непростой дружбе двух очень талантливых людей: писателя Томаса Вулфа и издателя Макса Перкинса, открывшего всему миру таких великих романистов, как Фрэнсис Скотт Фицджеральд и Эрнест Хемингуэй.
Доп. информация: Присутствует реклама!
Качество видео: WEB-DLRip
Формат видео: AVI
Видео: Xvid 720x304 23.976fps 1651 Kbps
Аудио: Dolby, AC3 48,0Hz stereo 224kbps

MediaInfo

General
Complete name : G:\2016 й кино\GEniy.2o16.D.WEB-DLRip.14ooMB_KOSHARA.avi
Format : AVI
Format/Info : Audio Video Interleave
File size : 1.37 GiB
Duration : 1h 43mn
Overall bit rate : 1 884 Kbps
Writing application : VirtualDubMod 1.5.10.2 (build 2540/release)
Writing library : VirtualDubMod build 2540/release
Video
ID : 0
Format : MPEG-4 Visual
Format profile : Advanced [email protected]
Format settings, BVOP : Yes
Format settings, QPel : No
Format settings, GMC : No warppoints
Format settings, Matrix : Custom
Codec ID : XVID
Codec ID/Hint : XviD
Duration : 1h 43mn
Bit rate : 1 651 Kbps
Width : 720 pixels
Height : 304 pixels
Display aspect ratio : 2.35:1
Frame rate : 23.976 fps
Color space : YUV
Chroma subsampling : 4:2:0
Bit depth : 8 bits
Scan type : Progressive
Compression mode : Lossy
Bits/(Pixel*Frame) : 0.315
Stream size : 1.20 GiB (88%)
Writing library : XviD 1.2.1 (UTC 2008-12-04)
Audio
ID : 1
Format : AC-3
Format/Info : Audio Coding 3
Mode extension : CM (complete main)
Format settings, Endianness : Big
Codec ID : 2000
Duration : 1h 43mn
Bit rate mode : Constant
Bit rate : 224 Kbps
Channel(s) : 2 channels
Channel positions : Front: L R
Sampling rate : 48.0 KHz
Bit depth : 16 bits
Compression mode : Lossy
Stream size : 167 MiB (12%)
Alignment : Split accross interleaves
Interleave, duration : 42 ms (1.00 video frame)
Interleave, preload duration : 500 ms

Скриншоты

,
,
,

Создавать темы 06-Окт-2016 21:12

[Профиль]  [ЛС] 
Показать сообщения:    
Ответить на тему

Текущее время: 18-Окт 14:13

Часовой пояс: UTC + 5



Вы не можете начинать темы
Вы не можете отвечать на сообщения
Вы не можете редактировать свои сообщения
Вы не можете удалять свои сообщения
Вы не можете голосовать в опросах
Вы не можете прикреплять файлы к сообщениям
Вы не можете скачивать файлы