Дорогая передача (все выпуски) [2005 г., Скетч-шоу, TVRip]

Ответить на тему
 

фазилов ®

Стаж: 3 года 6 месяцев

Сообщений: 310

Симпатии: 344

ДОРОГАЯ ПЕРЕДАЧА
Год выпуска: 2005
Страна: Россия
Жанр: Скетч-шоу
Продолжительность: 02:57:07

Описание: Уникальная в своём роде юмористическая передача, первооткрыватель жанра чистого скетч-шоу на отечественном телевидении, доказавшая, что у нас и с чувством юмора, и с владением этим жанром дела обстоят ни капли не хуже, чем на его родине Англии. Здесь собран каждый скетч, выходивший за время существования программы на Ren-TV.
«Дорогая передача» — российское комедийное скетч-шоу. Сначала выходило на канале РЕН ТВ, но с 2006 года стало транслироваться на телеканале СТС под названием «6 кадров».

В ролях:
Галина Данилова, Ирина Медведева, Эдуард Радзюкевич, Фёдор Добронравов, Андрей Кайков, Сергей Дорогов
Дополнительная информация:
Были записаны все выпуски "Дорогой Передачи". После этого были вырезаны все часто повторяющиеся заставки и многочисленные повторы. И после этих нехитрых манипуляций получилось 8 частей длительностью от 20 до 27 минут.
Качество: TVRip
Формат: AVI
Видео кодек: XviD
Аудио кодек: MP3
Видео: 512x384 (1.33:1), 25 fps, XviD Final 1.0.3 (build 37) ~1009-1144 kbps avg, 0.23 bit/pixel
Аудио: 22.050 kHz, MPEG Layer 3, 1 ch, ~32.00 kbps avg

Media-info

Полное имя : D:\Мои релизы\Дорогая передача\1.avi
Формат : AVI
Формат/Информация : Audio Video Interleave
Размер файла : 176 Мбайт
Продолжительность : 23 м.
Общий поток : 1052 Кбит/сек
Программа кодирования : VirtualDubMod 1.5.10.1 (build 2366/release)
Библиотека кодирования : VirtualDubMod build 2366/release
Видео
Идентификатор : 0
Формат : MPEG-4 Visual
Профиль формата : [email protected]
Параметр BVOP формата : 2
Параметр QPel формата : Нет
Параметр GMC формата : Без точки перехода
Параметр матрицы формата : Default (H.263)
Режим смешивания : Сжатый битовый поток
Идентификатор кодека : XVID
Идентификатор кодека/Подсказка : XviD
Продолжительность : 23 м.
Битрейт : 1010 Кбит/сек
Ширина : 512 пикселей
Высота : 384 пикселя
Соотношение сторон : 4:3
Частота кадров : 25,000 кадров/сек
Цветовое пространство : YUV
Субдискретизация насыщенности : 4:2:0
Битовая глубина : 8 бит
Тип развёртки : Прогрессивная
Метод сжатия : С потерями
Бит/(Пиксели*Кадры) : 0.205
Размер потока : 169 Мбайт (96%)
Библиотека кодирования : XviD 1.0.3 (UTC 2004-12-20)
Аудио
Идентификатор : 1
Формат : MPEG Audio
Версия формата : Version 2
Профиль формата : Layer 3
Идентификатор кодека : 55
Идентификатор кодека/Подсказка : MP3
Продолжительность : 23 м.
Вид битрейта : Постоянный
Битрейт : 32,0 Кбит/сек
Каналы : 1 канал
Частота : 22,05 КГц
Метод сжатия : С потерями
Размер потока : 5,35 Мбайт (3%)
Выравнивание : Разделение по промежуткам
Продолжительность промежутка : 40 мс. (1,00 видеокадр)
Время предзагрузки промежутка : 500 мс.

Скриншоты


Создавать темы 07-Окт-2016 11:01

[Профиль]  [ЛС] 
Показать сообщения:    
Ответить на тему

Текущее время: 21-Авг 22:57

Часовой пояс: UTC + 5



Вы не можете начинать темы
Вы не можете отвечать на сообщения
Вы не можете редактировать свои сообщения
Вы не можете удалять свои сообщения
Вы не можете голосовать в опросах
Вы не можете прикреплять файлы к сообщениям
Вы не можете скачивать файлы