Бросок кобры / G.I. Joe: The Rise of Cobra (Стивен Соммерс) [2009, США, боевик, DVDRip] (MVO)

Ответить на тему
 

NVIDIA-GEFORCE ®

Стаж: 1 год 8 месяцев

Сообщений: 3

Бросок кобры / G.I. Joe: The Rise of Cobra
Страна: США
Жанр: боевик
Год выпуска: 2009
Продолжительность:1:58:33
Перевод: Профессиональный (многоголосый закадровый)
Cубтитры: нет
Режиссер: Стивен Соммерс
В ролях: Деннис Куэйд
Адевале Акиннуойе-Агбадже
Кристофер Экклстон
Марлон Уэйанс
Джозеф Гордон-Левитт
Сиенна Миллер
Рейчел Николс
Джонатан Прайс
Описание: Базирующееся в Европе высокотехнологичное международное военное подразделение,
известное как G.I.J.O.E., бросает вызов зловещей корпорации, руководимой знаменитым оружейным бароном
Качество видео: DVDRip
Формат видео: AVI
Видео: 704x288 23.976fps 1201kbps
Аудио: AC3 48000Hz 6ch 448kbps

MediaInfo

General
Complete name : D:\Новая папка\Zarubejniy\Zarubejniy\Movies\G.I.Joe\1.G.I.Joe.The.Rise.of.Cobra.avi
Format : AVI
Format/Info : Audio Video Interleave
File size : 1.37 GiB
Duration : 1h 57mn
Overall bit rate : 1 659 Kbps
Movie name : G.I. Joe: The Rise of Cobra (2009)
Director : ELEKTRI4KA [uniongang.ru]
Writing application : VirtualDubMod 1.5.4.1 (build 2178/release)
Copyright : http://uniongang.ru/
Video
ID : 0
Format : MPEG-4 Visual
Format profile : Advanced [email protected]
Format settings, BVOP : 3
Format settings, QPel : No
Format settings, GMC : No warppoints
Format settings, Matrix : Custom
Codec ID : XVID
Codec ID/Hint : XviD
Duration : 1h 57mn
Bit rate : 1 202 Kbps
Width : 704 pixels
Height : 288 pixels
Display aspect ratio : 2.40:1
Frame rate : 23.976 fps
Color space : YUV
Chroma subsampling : 4:2:0
Bit depth : 8 bits
Scan type : Progressive
Compression mode : Lossy
Bits/(Pixel*Frame) : 0.247
Stream size : 1 014 MiB (72%)
Writing library : XviD 1.2.0.dev47 (UTC 2006-11-01)
Audio
ID : 1
Format : AC-3
Format/Info : Audio Coding 3
Mode extension : CM (complete main)
Format settings, Endianness : Big
Codec ID : 2000
Duration : 1h 57mn
Bit rate mode : Constant
Bit rate : 448 Kbps
Channel(s) : 6 channels
Channel positions : Front: L C R, Side: L R, LFE
Sampling rate : 48.0 KHz
Bit depth : 16 bits
Compression mode : Lossy
Delay relative to video : 1s 250ms
Stream size : 378 MiB (27%)
Alignment : Split accross interleaves
Interleave, duration : 42 ms (1.00 video frame)
Interleave, preload duration : 500 ms

Скриншоты





Последний раз редактировалось: NVIDIA-GEFORCE (2016-10-07 20:25), всего редактировалось 3 раз(а)

Создавать темы 07-Окт-2016 19:11

[Профиль]  [ЛС] 
Показать сообщения:    
Ответить на тему

Текущее время: 14-Дек 11:33

Часовой пояс: UTC + 5



Вы не можете начинать темы
Вы не можете отвечать на сообщения
Вы не можете редактировать свои сообщения
Вы не можете удалять свои сообщения
Вы не можете голосовать в опросах
Вы не можете прикреплять файлы к сообщениям
Вы не можете скачивать файлы