Странная миссис Сэвидж (театр им. Моссовета) (Леонид Варпаховский) [1975, фильм-спектакль, драма, комедия, SATRip]

Ответить на тему
 

Ирина ®

Стаж: 3 года 11 месяцев

Сообщений: 57

Симпатии: 11

Странная миссис Сэвидж (театр им. Моссовета)
Жанр: фильм-спектакль, драма, комедия
Год выпуска: 1975
Продолжительность: 02:29:55
Режиссёр: Леонид Варпаховский
В ролях: Вера Марецкая - миссис Сэвидж
Татьяна Бестаева - Лили-Бэлл
Ирина Квитинская - Фэри
Алексей Консовский - Сэмуэл Сэвидж
Константин Михайлов - доктор
Айнель-Хаяб (Нелли) Молчадская - Флоренс
Михаил Погоржельский - Тайтус Сэвидж
Леонид Сенченко - Джеф
Ирина Соколова - миссис Пэдди
Тамара Чернова - мисс Вили
Олег Щетинин - Ганнибал
Описание: Когда взрослые дети решают упрятать свою мачеху в сумасшедший дом, несчастной жертве может помочь только одно – знание законов экономики и умение правильно разместить свои капиталы. Тогда в помощи психиатра начинают нуждаться сами детки.
Доп. информация: Давний спектакль Театра имени Моссовета, в котором по очереди играли две великие актрисы, Фаина Раневская и Вера Марецкая. Но благодаря популярной телеверсии роль миссис Сэвидж в зрительском сознании прочно закрепилась за одной только Марецкой. Лет тридцать назад зрители помнили комедию почти наизусть, причем не столько по репликам, сколько по интонациям Марецкой.
Качество видео: SATRip
Формат видео: AVI
Видео: DivX 5 560x416 25fps 910kbps
Аудио: MP3 48000Hz stereo 128kbps

MediaInfo

General
Complete name : C:\Users\user\Downloads\Видео\Художественные фильмы\1975 Странная миссис Сэвидж.avi
Format : AVI
Format/Info : Audio Video Interleave
File size : 1.09 GiB
Duration : 2h 29mn
Overall bit rate : 1 045 Kbps
Writing application : VirtualDubMod 1.5.4.1 (build 2178/release)
Writing library : VirtualDubMod build 2178/release
Video
ID : 0
Format : MPEG-4 Visual
Format settings, BVOP : 1
Format settings, QPel : No
Format settings, GMC : No warppoints
Format settings, Matrix : Default (H.263)
Muxing mode : Packed bitstream
Codec ID : DX50
Codec ID/Hint : DivX 5
Duration : 2h 29mn
Bit rate : 910 Kbps
Width : 560 pixels
Height : 416 pixels
Display aspect ratio : 4:3
Frame rate : 25.000 fps
Color space : YUV
Chroma subsampling : 4:2:0
Bit depth : 8 bits
Scan type : Progressive
Compression mode : Lossy
Bits/(Pixel*Frame) : 0.156
Stream size : 976 MiB (87%)
Writing library : DivX 5.2.1 (DrDivX 106) (UTC 2004-09-08)
Audio
ID : 1
Format : MPEG Audio
Format version : Version 1
Format profile : Layer 3
Mode : Joint stereo
Mode extension : MS Stereo
Codec ID : 55
Codec ID/Hint : MP3
Duration : 2h 29mn
Bit rate mode : Constant
Bit rate : 128 Kbps
Channel(s) : 2 channels
Sampling rate : 48.0 KHz
Compression mode : Lossy
Delay relative to video : 24ms
Stream size : 137 MiB (12%)
Alignment : Aligned on interleaves
Interleave, duration : 80 ms (2.00 video frames)
Interleave, preload duration : 504 ms
Writing library : LAME3.97b
Encoding settings : -m j -V 4 -q 2 -lowpass 17 -b 128

Скриншот c названием фильма

Скриншоты

Создавать темы 15-Окт-2016 00:27

[Профиль]  [ЛС] 

Топик был перенесен из форума Кинематограф СССР в форум Спектакли
ruhal

Создавать темы 15-Окт-2016 06:03

 

sulla

Стаж: 5 лет 2 месяца

Сообщений: 26

Симпатии: 2

спасибо за труды

Создавать темы 15-Окт-2016 10:57

[Профиль]  [ЛС] 

Ирина ®

Стаж: 3 года 11 месяцев

Сообщений: 57

Симпатии: 11

986093спасибо за труды
Пожалуйста. Ночью скачала "Дальше - тишина" (Плятт и Раневская). Завтра или послезавтра выложу.

Создавать темы 15-Окт-2016 13:24

[Профиль]  [ЛС] 
Показать сообщения:    
Ответить на тему

Текущее время: 14-Дек 00:00

Часовой пояс: UTC + 5



Вы не можете начинать темы
Вы не можете отвечать на сообщения
Вы не можете редактировать свои сообщения
Вы не можете удалять свои сообщения
Вы не можете голосовать в опросах
Вы не можете прикреплять файлы к сообщениям
Вы не можете скачивать файлы