Латинский любовник / Latin Lover (Кристина Коменчини) [2015, Италия, драма, комедия, WEB-DLRip] (MVO)

Ответить на тему
 

bbk ®

Стаж: 7 лет

Сообщений: 435

Симпатии: 479

Латинский любовник / Latin Lover
Страна: Италия
Жанр: драма, комедия
Год выпуска: 2015
Продолжительность: 01:45:26
Перевод: Любительский (многоголосый закадровый)
Cубтитры: нет
Режиссер: Кристина Коменчини
В ролях: Мариса Паредес, Анджела Финоккьяро, Валерия Бруни-Тедески, Кандела Пенья, Пихла Виитала, Nadeah Miranda, Франческо Шанна, Нери Маркоре, Клаудио Джоэ, Льюис Омар
Описание: Весь фильм завязан на одном известном культовом итальянском актере Саверио Криспо. Как настоящий человек латинской страстной натуры герой не мог обойтись только одной женщиной, поэтому и дочерей у него пять (те, кто знает о друг друге): итальянская Сузанна, французская Стэфани, испанская Сегунда, американская Шелли и шведская Сольвейг. В его итальянском доме собираются все его женщины — завтра десятилетняя годовщина смерти любимого Саверио, которого они так безумно боготворят. Тут и начинают всплывать факты, которые возвращают всех на землю...
 
Имеется реклама от спонсора показа
Качество видео: WEB-DLRip
Формат видео: AVI
Видео: 720x304 (2.37:1), 24 fps, XviD build 50 ~1654 kbps avg, 0.32 bit/pixel
Аудио: 48 kHz, AC3 Dolby Digital, 2/0 (L,R) ch, ~192 kbps

MediaInfo

General
Complete name : D:\Downloads\Latin.Lover.2O15.P.WEB-DLRip.14OOMB_KOSHARA.avi
Format : AVI
Format/Info : Audio Video Interleave
File size : 1.37 GiB
Duration : 1 h 45 min
Overall bit rate : 1 856 kb/s
Writing application : VirtualDubMod 1.5.10.2 (build 2540/release)
Writing library : VirtualDubMod build 2540/release
Video
ID : 0
Format : MPEG-4 Visual
Format profile : Advanced [email protected]
Format settings, BVOP : 2
Format settings, QPel : No
Format settings, GMC : No warppoints
Format settings, Matrix : Default (MPEG)
Codec ID : XVID
Codec ID/Hint : XviD
Duration : 1 h 45 min
Bit rate : 1 655 kb/s
Width : 720 pixels
Height : 304 pixels
Display aspect ratio : 2.35:1
Frame rate : 24.000 FPS
Color space : YUV
Chroma subsampling : 4:2:0
Bit depth : 8 bits
Scan type : Progressive
Compression mode : Lossy
Bits/(Pixel*Frame) : 0.315
Stream size : 1.22 GiB (89%)
Writing library : XviD 1.2.1 (UTC 2008-12-04)
Audio
ID : 1
Format : AC-3
Format/Info : Audio Coding 3
Mode extension : CM (complete main)
Format settings, Endianness : Big
Codec ID : 2000
Duration : 1 h 45 min
Bit rate mode : Constant
Bit rate : 192 kb/s
Channel(s) : 2 channels
Channel positions : Front: L R
Sampling rate : 48.0 kHz
Frame rate : 31.250 FPS (1536 spf)
Compression mode : Lossy
Stream size : 145 MiB (10%)
Alignment : Split accross interleaves
Interleave, duration : 42 ms (1.00 video frame)
Interleave, preload duration : 500 ms

Скриншот c названием фильма

Скриншоты




Создавать темы 17-Окт-2016 11:22

[Профиль]  [ЛС] 
Показать сообщения:    
Ответить на тему

Текущее время: 25-Ноя 07:12

Часовой пояс: UTC + 5



Вы не можете начинать темы
Вы не можете отвечать на сообщения
Вы не можете редактировать свои сообщения
Вы не можете удалять свои сообщения
Вы не можете голосовать в опросах
Вы не можете прикреплять файлы к сообщениям
Вы не можете скачивать файлы