Трусонюх 2: Осадки в виде труселей / HK: Hentai Kamen - Abnormal Crisis (Юити Фукуда) [2016, Япония, Комедия, BDRip] (DVO : 2D)

Ответить на тему
 

bbk ®

Стаж: 6 лет 11 месяцев

Сообщений: 435

Симпатии: 479

-Трусонюх 2: Осадки в виде труселей / HK: Hentai Kamen - Abnormal Crisis- Страна: Япония
Жанр: Комедия
Год выпуска: 2016
Продолжительность: 01:57:59-Перевод: Любительский (двухголосый закадровый), 2D
Cубтитры: нет-Режиссер: Юити Фукуда-В ролях: Рёхэй Сузуки, Фумика Симидзу, Юя Ягира, Аямэ Мисаки, Нана Катасе, Кен Ясуда, Наруси Икэда, Хирофуми Арай, Сарутоки Минагава, Кёскэ Ябэ-Описание: Сикидзо Кёсуки, еще в средней школе ставший супергероем с женскими трусиками на голове вместо маски, уже студент колледжа, а похищения женских трусиков до сих пор продолжаются по всему миру.- 
-Качество видео: BDRip
Формат видео: AVI
Видео: xvid, 704x400 (16:9), 25.000 fps, 1 725 Kbps (0.245 bit/pixel)
Аудио: MP3, 48.0 KHz, 2 ch, 128 Kbps, CBR- -

MediaInfo

General
Complete name : D:\Downloads\Izvratnaya maska 2016 BDRip.avi
Format : AVI
Format/Info : Audio Video Interleave
Format profile : OpenDML
File size : 1.54 GiB
Duration : 1 h 57 min
Overall bit rate : 1 868 kb/s
Writing application : Lavf57.20.100
Video
ID : 0
Format : xvid
Codec ID : xvid
Duration : 1 h 57 min
Bit rate : 1 725 kb/s
Width : 704 pixels
Height : 400 pixels
Display aspect ratio : 2.40:1
Frame rate : 25.000 FPS
Scan type : Progressive
Bits/(Pixel*Frame) : 0.245
Stream size : 1.42 GiB (92%)
Audio
ID : 1
Format : MPEG Audio
Format version : Version 1
Format profile : Layer 3
Mode : Joint stereo
Codec ID : 55
Codec ID/Hint : MP3
Duration : 1 h 57 min
Bit rate mode : Constant
Bit rate : 128 kb/s
Channel(s) : 2 channels
Sampling rate : 48.0 kHz
Compression mode : Lossy
Stream size : 108 MiB (7%)
Alignment : Aligned on interleaves
Interleave, duration : 24 ms (0.60 video frame)
Interleave, preload duration : 24 ms

Скриншот c названием фильма

Скриншоты







Последний раз редактировалось: bbk (2016-10-29 12:21), всего редактировалось 1 раз

Создавать темы 29-Окт-2016 10:19

[Профиль]  [ЛС] 

FoxSage

Стаж: 4 года 3 месяца

Сообщений: 197

Симпатии: 19

Я афигиваю

Создавать темы 30-Окт-2016 09:35

[Профиль]  [ЛС] 

ruhal

Стаж: 2 года 6 месяцев

Сообщений: 1181

Симпатии: 1836

986429Я афигиваю
обычный японский трэш, что тут такого

Создавать темы 30-Окт-2016 10:42

[Профиль]  [ЛС] 

jack2012

Стаж: 3 года 8 месяцев

Сообщений: 10

Симпатии: 3

а потом кончита спасает европу?

Создавать темы 22-Ноя-2016 21:27

[Профиль]  [ЛС] 
Показать сообщения:    
Ответить на тему

Текущее время: 19-Окт 05:12

Часовой пояс: UTC + 5



Вы не можете начинать темы
Вы не можете отвечать на сообщения
Вы не можете редактировать свои сообщения
Вы не можете удалять свои сообщения
Вы не можете голосовать в опросах
Вы не можете прикреплять файлы к сообщениям
Вы не можете скачивать файлы