Стокгольм, Пенсильвания / Stockholm, Pennsylvania (Николь Бекуив) [2015, США, триллер, драма, WebRip] (VO) (Sub Eng)

Ответить на тему
 

bbk ®

Стаж: 7 лет 1 месяц

Сообщений: 435

Симпатии: 479

Стокгольм, Пенсильвания / Stockholm, Pennsylvania-- Страна: США
Жанр: триллер, драма
Год выпуска: 2015
Продолжительность: 01:35:09
Перевод: Одноголосый закадровый
Cубтитры: английские
Режиссер: Николь Бекуив
В ролях: Сирша Ронан, Синтия Никсон, Джейсон Айзекс, Дэвид Уоршофски, Розалинд Чао, Эйвери Филлипс, Хана Хэйес, Том Райт, Джейн Тэйни, Хуан М. Фернандез
Описание: Фильм рассказывает историю двадцатилетней девушки, которая спустя всю жизнь вернулась в родной дом. Дело в том, что её украли в совсем нежном возрасте, спустя два десятилетия её нашла семья, и теперь главной героине придется адаптироваться под новые условия, привыкнуть к совершенно чужим людям — её родной семье…
 
Качество видео: WebRip
Формат видео: MKV
Видео: 1280x720 (16:9), 23.976 fps, [email protected], AVC (x264), 1848 kbps, 0.084 bit/pixel
Аудио: 48.0 kHz, AC3 Dolby Digital, 3/2 (L,C,R,l,r) + LFE ch, 448 kbps
Формат субтитров: softsub (SRT)

MediaInfo

General
Unique ID : 174246980559184338203007179268804175533 (0x8316BF6D0E1D9B09194F7E3AC25DE6AD)
Complete name : stockholm.pennsylvania.2015.720p.solod.rus.5.1.mkv
Format : Matroska
Format version : Version 4 / Version 2
File size : 1.52 GiB
Duration : 1 h 35 min
Overall bit rate : 2 292 kb/s
Encoded date : UTC 2016-10-30 15:35:26
Writing application : mkvmerge v9.5.0 ('Quiet Fire') 64bit
Writing library : libebml v1.3.4 + libmatroska v1.4.5
Video
ID : 1
Format : AVC
Format/Info : Advanced Video Codec
Format profile : [email protected]
Format settings, CABAC : Yes
Format settings, ReFrames : 5 frames
Codec ID : V_MPEG4/ISO/AVC
Duration : 1 h 34 min
Bit rate : 1 848 kb/s
Width : 1 280 pixels
Height : 720 pixels
Display aspect ratio : 16:9
Frame rate mode : Constant
Frame rate : 23.976 (24000/1001) FPS
Color space : YUV
Chroma subsampling : 4:2:0
Bit depth : 8 bits
Scan type : Progressive
Bits/(Pixel*Frame) : 0.084
Stream size : 1.22 GiB (80%)
Writing library : x264 core 146 r2538 121396c
Encoding settings : cabac=1 / ref=5 / deblock=1:0:0 / analyse=0x3:0x113 / me=umh / subme=8 / psy=1 / psy_rd=1.00:0.00 / mixed_ref=1 / me_range=16 / chroma_me=1 / trellis=1 / 8x8dct=1 / cqm=0 / deadzone=21,11 / fast_pskip=1 / chroma_qp_offset=-2 / threads=12 / lookahead_threads=2 / sliced_threads=0 / nr=0 / decimate=1 / interlaced=0 / bluray_compat=0 / constrained_intra=0 / bframes=3 / b_pyramid=2 / b_adapt=2 / b_bias=0 / direct=3 / weightb=1 / open_gop=0 / weightp=2 / keyint=250 / keyint_min=25 / scenecut=40 / intra_refresh=0 / rc_lookahead=50 / rc=crf / mbtree=1 / crf=18.0 / qcomp=0.60 / qpmin=0 / qpmax=69 / qpstep=4 / ip_ratio=1.40 / aq=1:1.00
Language : English
Default : Yes
Forced : No
Audio
ID : 2
Format : AC-3
Format/Info : Audio Coding 3
Mode extension : CM (complete main)
Format settings, Endianness : Big
Codec ID : A_AC3
Duration : 1 h 35 min
Bit rate mode : Constant
Bit rate : 448 kb/s
Channel(s) : 6 channels
Channel positions : Front: L C R, Side: L R, LFE
Sampling rate : 48.0 kHz
Frame rate : 31.250 FPS (1536 spf)
Compression mode : Lossy
Stream size : 305 MiB (20%)
Title : vo solod
Language : Russian
Default : Yes
Forced : No
Text
ID : 3
Format : UTF-8
Codec ID : S_TEXT/UTF8
Codec ID/Info : UTF-8 Plain Text
Duration : 1 h 34 min
Bit rate : 78 b/s
Count of elements : 1479
Stream size : 54.8 KiB (0%)
Language : English
Default : No
Forced : No

Скриншот c названием фильма

Скриншоты




Создавать темы 31-Окт-2016 08:27

[Профиль]  [ЛС] 
Показать сообщения:    
Ответить на тему

Текущее время: 17-Дек 17:08

Часовой пояс: UTC + 5



Вы не можете начинать темы
Вы не можете отвечать на сообщения
Вы не можете редактировать свои сообщения
Вы не можете удалять свои сообщения
Вы не можете голосовать в опросах
Вы не можете прикреплять файлы к сообщениям
Вы не можете скачивать файлы