Скачать Гравити Фолз / Gravity Falls / Сезон: 2 / Серии: 1-20 из 20 (Джон Аошима / John Aoshima, Джо Питт / Joe Pitt, Аарон Спринджер / Aaron Springer) [2014, Мультсериал, комедия, мистика, приключения, WEB-DLRip] DUB в Тас-икс (Tas-ix)

Ответить на тему
 

Rammstein ®

Стаж: 6 лет 1 месяц

Сообщений: 320

Симпатии: 117

Гравити Фолз : 2 сезон (Серии 20 из 20)

Год выпуска: 2014
Страна: США
Производство: Disney
Жанр: Комедия, Детектив
Продолжительность: 20x~21 мин.
Перевод: Профессиональный (полное дублирование)
Режиссёр: Джон Аошима, Джо Питт, Аарон Спринджер
Роли озвучивали: Наталья Терешкова, Антон Колесников, Владимир Герасимов, Ольга Шорохова, Денис Некрасов
Описание: Описание: История рассказывает о приключениях близнецов, брата и сестры Диппера и Мэйбл Пайнс, чьи летние планы отправляются в чулан, когда родители оправляют их к дальнему родственнику в тихий городок Гравити Фолз. Но так ли прост этот город, родственник и жители, и какие тайны ждут своих первооткрывателей?
Качество: WEB-DLRip
Формат: AVI
Видео: 720x400 (1.80:1), 23.976 fps, XviD build 65 ~1 531 Kbps avg, 0.19 bit/pixel
Аудио: 48 kHz, MPEG Layer 3, 2 ch, ~192.00 kbps avg
Субтитры: Отсутствуют

MI

Format : AVI
Format/Info : Audio Video Interleave
File size : 280 MiB
Duration : 22mn 36s
Overall bit rate : 1 733 Kbps
Writing application : VirtualDubModRus 1.5.10.2 (build 2542/release)
Writing library : VirtualDubMod build 2542/release
Video
ID : 0
Format : MPEG-4 Visual
Format profile : Advanced [email protected]
Format settings, BVOP : No
Format settings, QPel : No
Format settings, GMC : No warppoints
Format settings, Matrix : Default (H.263)
Codec ID : XVID
Codec ID/Hint : XviD
Duration : 22mn 36s
Bit rate : 1 531 Kbps
Width : 720 pixels
Height : 400 pixels
Display aspect ratio : 16:9
Frame rate : 23.976 fps
Resolution : 8 bits
Colorimetry : 4:2:0
Scan type : Progressive
Bits/(Pixel*Frame) : 0.222
Stream size : 248 MiB (88%)
Writing library : XviD 1.2.1 (UTC 2008-12-04)
Audio
ID : 1
Format : AC-3
Format/Info : Audio Coding 3
Codec ID : 2000
Duration : 22mn 36s
Bit rate mode : Constant
Bit rate : 192 Kbps
Channel(s) : 2 channels
Channel positions : L R
Sampling rate : 48.0 KHz
Stream size : 31.1 MiB (11%)
Alignment : Split accross interleaves
Interleave, duration : 42 ms (1.00 video frame)
Interleave, preload duration : 500 ms
Language : Russian
Bit rate mode : Constant
Bit rate : 128 Kbps
Channel(s) : 2 channels
Sampling rate : 48.0 KHz
Compression mode : Lossy
Stream size : 19.4 MiB (9%)
Alignment : Aligned on interleaves
Interleave, duration : 42 ms (1.00 video frame)
Interleave, preload duration : 504 ms
Writing library : LAME3.99r
Encoding settings : -m s -V 4 -q 2 -lowpass 17 -b 128

Список Серий

01. Scary-Oke (Ужасное караоке)
02. Into the Bunker (В бункер)
03. The Golf-War (Гольфовая война)
04. Sock Opera (Носочная опера)
05. Soos and The Real Girl (Зус и реальная девушка)
06. Little Gift Shop of Horrors (Маленькая сувенирная лавочка ужасов)
07. Society of the Blind Eye (Общество слепого глаза)
08. Blendin's Game (Игра Блэндина)
09. The Love God (Бог любви)
10. Northwest Mansion Mystery (Тайна особняка Нортвест)
11. Not What He Seems (Не тот, кем кажется)
12. A Tale of Two Stans (История о Двух Стэнах)
13. Dungeons, Dungeons, and More Dungeons (Подземелья, подземелья и ещё раз подземелья)
14. The Stanchurian Candidate (Кандидат от Стэнчжурии)
15. The Last Mabelcorn (Последний Мэйблрог)
16. Roadside Attraction (Придорожный аттракцион)
17. Dipper and Mabel vs. the Future (Диппер и Мэйбл против будущего)
18. Weirdmageddon. Part 1 (Странногеддон. Часть 1)
19. Weirdmageddon. Part 2: Escape From Reality (Странногеддон. Часть 2: Побег из реальности)
20. Weirdmageddon. Part 3: Take Back The Falls (Странногеддон. Часть 3: Вернём Гравити Фолз)

Создавать темы 04-Ноя-2016 22:20

[Профиль]  [ЛС] 

Рамис

Стаж: 5 лет 6 месяцев

Сообщений: 13

Симпатии: 1

Rammstein, Когда сможете возобновить раздачу?

Создавать темы 19-Июл-2018 19:53

[Профиль]  [ЛС] 
Показать сообщения:    
Ответить на тему

Текущее время: 20-Авг 09:37

Часовой пояс: UTC + 5



Вы не можете начинать темы
Вы не можете отвечать на сообщения
Вы не можете редактировать свои сообщения
Вы не можете удалять свои сообщения
Вы не можете голосовать в опросах
Вы не можете прикреплять файлы к сообщениям
Вы не можете скачивать файлы