Скачать торрент Медичи: Правители Флоренции / Medici: Masters of Florence / Сезон: 1 / Серии: 1-8 из 8 (Серджо Мимика-Геззан) [2016, триллер, драма, история, WEBRip] (MVO : Jaskier) (France)

Ответить на тему
 

emilsky ®

Стаж: 7 лет 10 месяцев

Сообщений: 2236

Симпатии: 614

Медичи: Правители Флоренции / Medici: Masters of Florence
Год выпуска: 2016
Страна: Великобритания, Италия
Жанр: триллер, драма, история
Продолжительность: ~ 00:55:00 сер
Перевод: Профессиональный многоголосый закадровый Доп. инфо о переводе Jaskier
Русские субтитры: нет
Режиссёр: Серджо Мимика-Геззан
В ролях: Дастин Хоффман, Гвидо Каприно, Джорджо Капуто, Ричард Мэдден, Стюарт Мартин, Анабель Шолей
Описание: Темой сериала станет превращение титулованного семейства Медичи из обычных торговцев в невероятно могучий клан, который, зачастую пренебрегая законами морали, оказал существенное влияние на духовную, экономическую и культурную революции, и нажил себе много врагов.
Качество: WEBRip
Формат: AVI
Видео кодек: XviD
Аудио кодек: AC3, mp3
Видео: ~ 1229 kbps, 720x400, 25 fps
Аудио: mp3, 48 KHz, 2 ch, 192 kbps
Аудио 2: AC3, 44,1 KHz, 2 ch, 128 kbps

MediaInfo

e:\Сериалы\Медичи 1 сезон\m3d141.01.01jask.avi
General
Complete name : e:\Сериалы\Медичи 1 сезон\m3d141.01.01jask.avi
Format : AVI
Format/Info : Audio Video Interleave
File size : 620 MiB
Duration : 55 min
Overall bit rate : 1 566 kb/s
Writing application : VirtualDubMod 1.6.0.0 SURROUND (build 2560/release)
Writing library : VirtualDubMod build 2560/release
Video #0
ID : 0
Format : MPEG-4 Visual
Format profile : [email protected]
Format settings, BVOP : No
Format settings, QPel : No
Format settings, GMC : No warppoints
Format settings, Matrix : Default (H.263)
Codec ID : XVID
Codec ID/Hint : XviD
Duration : 55 min
Bit rate : 1 229 kb/s
Width : 720 pixels
Height : 404 pixels
Display aspect ratio : 16:9
Frame rate : 25.000 FPS
Color space : YUV
Chroma subsampling : 4:2:0
Bit depth : 8 bits
Scan type : Progressive
Compression mode : Lossy
Bits/(Pixel*Frame) : 0.169
Stream size : 487 MiB (78%)
Writing library : XviD 64
Audio #1
ID : 1
Format : AC-3
Format/Info : Audio Coding 3
Mode extension : CM (complete main)
Format settings, Endianness : Big
Codec ID : 2000
Duration : 55 min
Bit rate mode : Constant
Bit rate : 192 kb/s
Channel(s) : 2 channels
Channel positions : Front: L R
Sampling rate : 48.0 kHz
Frame rate : 31.250 FPS (1536 spf)
Compression mode : Lossy
Stream size : 76.0 MiB (12%)
Alignment : Split accross interleaves
Interleave, duration : 40 ms (1.00 video frame)
Interleave, preload duration : 500 ms
Audio #2
ID : 2
Format : MPEG Audio
Format version : Version 1
Format profile : Layer 3
Mode : Joint stereo
Mode extension : MS Stereo
Codec ID : 55
Codec ID/Hint : MP3
Duration : 55 min
Bit rate mode : Constant
Bit rate : 128 kb/s
Channel(s) : 2 channels
Sampling rate : 44.1 kHz
Compression mode : Lossy
Stream size : 50.7 MiB (8%)
Alignment : Aligned on interleaves
Interleave, duration : 26 ms (0.65 video frame)
Interleave, preload duration : 522 ms
Writing library : LAME3.99.3

Скриншоты меню

Скриншоты







Последний раз редактировалось: emilsky (2016-11-27 07:42), всего редактировалось 1 раз

Создавать темы 20-Ноя-2016 09:37

[Профиль]  [ЛС] 

emilsky ®

Стаж: 7 лет 10 месяцев

Сообщений: 2236

Симпатии: 614

не зарегился торрент,пришлось создать новую тему!

Создавать темы 20-Ноя-2016 09:39

[Профиль]  [ЛС] 

beeschunmo

Стаж: 4 года 5 месяцев

Сообщений: 157

Симпатии: 12

987325не зарегился торрент,пришлось создать новую тему!
Главное, что релиз продолжился! Спасибо!

Создавать темы 20-Ноя-2016 11:35

[Профиль]  [ЛС] 

beeschunmo

Стаж: 4 года 5 месяцев

Сообщений: 157

Симпатии: 12

первую серию надо заменить, чтоб и там была оригинальная звуковая дорожка на английском языке!

Комментарий от emilsky


принципиально?

Создавать темы 25-Ноя-2016 09:51

[Профиль]  [ЛС] 

beeschunmo

Стаж: 4 года 5 месяцев

Сообщений: 157

Симпатии: 12

987541первую серию надо заменить, чтоб и там была оригинальная звуковая дорожка на английском языке!
Ну, не настолько)) Бывает непросто, когда страдаешь от перфекционизма ag

Создавать темы 26-Ноя-2016 00:41

[Профиль]  [ЛС] 

emilsky ®

Стаж: 7 лет 10 месяцев

Сообщений: 2236

Симпатии: 614

7 8 серии, финал сезона!

Создавать темы 27-Ноя-2016 07:43

[Профиль]  [ЛС] 

BlackJoker

Стаж: 2 года 9 месяцев

Сообщений: 15

Симпатии: 3

Кто просмотрел, отпишите хоть впечатления, пожалуйста:)

Создавать темы 07-Май-2017 16:34

[Профиль]  [ЛС] 

LiX

Стаж: 7 лет

Сообщений: 255

Симпатии: 6

992999Кто просмотрел, отпишите хоть впечатления, пожалуйста:)
Сериал великолепен. Роб Старк отжигает в роли Медичи ab
Если играли и любили Assassins Creed II - то вы также испытаете эстетический кайф, как и я.
Очень надеюсь что II сезону быть!

Создавать темы 10-Дек-2017 22:35

[Профиль]  [ЛС] 

0merta

Стаж: 1 год 1 месяц

Сообщений: 3

загрузите второй сезон!

Создавать темы 20-Фев-2018 10:54

[Профиль]  [ЛС] 

Бабурхан

Стаж: 7 месяцев 16 дней

Сообщений: 1

Салам всем, люди встаньте на раздачу вообще нет скорости. Спасибо

Создавать темы 09-Май-2018 16:31

[Профиль]  [ЛС] 
Показать сообщения:    
Ответить на тему

Текущее время: 25-Май 06:35

Часовой пояс: UTC + 5



Вы не можете начинать темы
Вы не можете отвечать на сообщения
Вы не можете редактировать свои сообщения
Вы не можете удалять свои сообщения
Вы не можете голосовать в опросах
Вы не можете прикреплять файлы к сообщениям
Вы не можете скачивать файлы