Ключ от преисподней | Baskin (Кан Эвренол) [2015, Ужасы, Фэнтези, HDRip] | iTunes

Ответить на тему
 

Админ ®

Стаж: 8 лет 10 месяцев

Сообщений: 290

Симпатии: 844

Ключ от преисподней | Baskin-«Enter A World of Madness and Suffering»-- Информация:
Год выпуска: 2015
Страна: США, Турция
Жанр: Ужасы, Фэнтези
Продолжительность: 01:36:35
Перевод: Дублированный [iTunes]--Режиссер: Кан Эвренол--В ролях: Мухаррем Байрак, Gorkem Kasal, Эргун Куйусу, Fatih Dokgöz, Сабахаттин Якут, Mehmet Cerrahoglu, Хаяти Китаклар, Leman Sevda Daricioglu, Тугба Озкуль, Aslihan Erguvan--Описание:
Пятеро брутальных копов сидели в ночной забегаловке. Обычный мужской треп — футбол, девушки, секс — прервал экстренный вызов. Группе приказали проверить заброшенный дом в лесу. Сели в патрульную машину и поехали. Привычное дело. Ежедневная рутина. Но не в этот раз. Полуразрушенный и пустой, на первый взгляд, дом оказался преддверием Ада, кишащим жуткими монстрами. И каждому из полицейских здесь уготованы чудовищные пытки, каждому — по грехам его…--Дополнительная информация:
Сценарий: Огулчен Эрен Акай, Кан Эвренол, Чем Озудуру
Продюсер: Тодд Браун, Муге Буюкталас, Толга Эренаш
Оператор: Альп Корфали
Композитор: Улас Паккан
Художник: Сила Каракая, Синан Сарачоглу
Монтаж: Эркан Озекан--Сборы в РФ $55 188--Премьера (мир): 11 сентября 2015--Возраст: зрителям, достигшим 16 лет--Тех. данные:
Качество: HDRip
Формат: AVI
Видео кодек: XviD
Аудио кодек: AC-3
Видео данные: XviD, 1633 Кбит/с, 720x304
Аудио: AC3, 6 ch, 384 Кбит/с--

M|I:

General
Complete name : D:\Фильмы\Klu4.ot.preispodnej.2015.D.HDRip.1400MB.avi
Format : AVI
Format/Info : Audio Video Interleave
File size : 1.37 GiB
Duration : 1 h 36 min
Overall bit rate : 2 026 kb/s
Movie name : MoreFilms
Writing application : VirtualDubMod 1.5.10.2 (build 2540/release)
Copyright : MoreFilms
Video
ID : 0
Format : MPEG-4 Visual
Format profile : Advanced [email protected]
Format settings, BVOP : 2
Format settings, QPel : No
Format settings, GMC : No warppoints
Format settings, Matrix : Custom
Codec ID : XVID
Codec ID/Hint : XviD
Duration : 1 h 36 min
Bit rate : 1 633 kb/s
Width : 720 pixels
Height : 304 pixels
Display aspect ratio : 2.35:1
Frame rate : 24.000 FPS
Color space : YUV
Chroma subsampling : 4:2:0
Bit depth : 8 bits
Scan type : Progressive
Compression mode : Lossy
Bits/(Pixel*Frame) : 0.311
Stream size : 1.10 GiB (81%)
Writing library : XviD 1.2.1 (UTC 2008-12-04)
Audio
ID : 1
Format : AC-3
Format/Info : Audio Coding 3
Mode extension : CM (complete main)
Format settings, Endianness : Big
Codec ID : 2000
Duration : 1 h 36 min
Bit rate mode : Constant
Bit rate : 384 kb/s
Channel(s) : 6 channels
Channel positions : Front: L C R, Side: L R, LFE
Sampling rate : 48.0 kHz
Frame rate : 31.250 FPS (1536 spf)
Bit depth : 16 bits
Compression mode : Lossy
Stream size : 265 MiB (19%)
Alignment : Split accross interleaves
Interleave, duration : 42 ms (1.00 video frame)
Interleave, preload duratio : 500 ms
-

Скриншоты:

Создавать темы 28-Ноя-2016 00:01

[Профиль]  [ЛС] 

digame

Стаж: 1 год 10 месяцев

Сообщений: 7

Хрень

Создавать темы 28-Ноя-2016 00:57

[Профиль]  [ЛС] 

Водяп

Стаж: 1 год 3 месяца

Сообщений: 7

Сборы в РФ $55 188
Мда... Всё понятно.

Создавать темы 28-Ноя-2016 20:06

[Профиль]  [ЛС] 
Показать сообщения:    
Ответить на тему

Текущее время: 25-Ноя 07:12

Часовой пояс: UTC + 5



Вы не можете начинать темы
Вы не можете отвечать на сообщения
Вы не можете редактировать свои сообщения
Вы не можете удалять свои сообщения
Вы не можете голосовать в опросах
Вы не можете прикреплять файлы к сообщениям
Вы не можете скачивать файлы