Годзилла / Shin Gojira (Хидэаки Анно, Синдзи Хигути) [2016, Япония, ужасы, фантастика, боевик, драма, приключения, WEBRip 720p]

Ответить на тему
 

HYUGO ®

Стаж: 3 года 8 месяцев

Сообщений: 95

Симпатии: 40

Годзилла/Shin Gojira
Страна: Япония
Жанр: ужасы, фантастика, боевик, драма, приключения
Год выпуска: 2016
Продолжительность: 01:40:36
Перевод: Профессиональный (многоголосый закадровый) Доп. инфо о переводе [Колобок]
Режиссер: Хидэаки Анно, Синдзи Хигути
В ролях: Хироки Хасэгава, Ютака Такэноути, Сатоми Исихара, Рен Осуги, Акира Эмото, Кэнго Кора, Микако Итикава, Дзюн Кунимура, Пьер Таки, Кюсаку Симада, Кэн Мицуиси, Синго Цуруми
Описание: Загадочная авария в туннелях под мостом-шоссе Токио Бэй Аква Лайн ставит на уши все аварийные подразделения мегаполиса. Шеф МЧС Японии созывает всех, чтобы найти причину аварии, и возможные решения сложившейся проблемы. Они еще не знают, что это только начало. Огромное существо, известное как Годзилла, встало на путь разрушения...
Доп. информация:
Сценарий: Хидэаки Анно
Продюсер: Ёсихиро Сато, Масая Сибусава, Таити Уэда
Оператор: Косукэ Ямада
Композитор: Сиро Сагису
Художник: Юдзи Хаясида, Эри Сакусима, Акира Сакамото
Монтаж: Хидэаки Анно, Ацуки Сато
Качество видео: WEBRip 720p
Формат видео: MKV
Видео: AVC; 1280x532 (2.40:1), 3 797 kb/s, 29.970 FPS
Аудио: AC-3; 48.0 kHz, 192 kb/s, 2 channels

MediaInfo

General
Unique ID : 183686900571106485900136243733493681388 (0x8A30CF6A9696F3B9A0F0876E8C738CEC)
Complete name : D:\Фильмы\GodZZiLLa.2O16.P.WEBRip.72Op.mkv
Format : Matroska
Format version : Version 2
File size : 2.80 GiB
Duration : 1 h 40 min
Overall bit rate mode : Variable
Overall bit rate : 3 991 kb/s
Encoded date : UTC 2016-12-02 17:30:49
Writing application : mkvmerge v8.3.0 ('Over the Horizon') 64bit
Writing library : libebml v1.3.1 + libmatroska v1.4.2
Video
ID : 1
Format : AVC
Format/Info : Advanced Video Codec
Format profile : [email protected]
Format settings, CABAC : Yes
Format settings, ReFrames : 12 frames
Codec ID : V_MPEG4/ISO/AVC
Duration : 1 h 40 min
Bit rate mode : Variable
Bit rate : 3 797 kb/s
Maximum bit rate : 4 500 kb/s
Width : 1 280 pixels
Height : 532 pixels
Display aspect ratio : 2.40:1
Frame rate mode : Constant
Frame rate : 29.970 (30000/1001) FPS
Standard : Component
Color space : YUV
Chroma subsampling : 4:2:0
Bit depth : 8 bits
Scan type : Progressive
Bits/(Pixel*Frame) : 0.186
Stream size : 2.67 GiB (95%)
Default : Yes
Forced : No
Color range : Limited
Color primaries : BT.709
Transfer characteristics : BT.709
Matrix coefficients : BT.709
Audio
ID : 2
Format : AC-3
Format/Info : Audio Coding 3
Mode extension : CM (complete main)
Format settings, Endianness : Big
Codec ID : A_AC3
Duration : 1 h 40 min
Bit rate mode : Constant
Bit rate : 192 kb/s
Channel(s) : 2 channels
Channel positions : Front: L R
Sampling rate : 48.0 kHz
Frame rate : 31.250 FPS (1536 spf)
Bit depth : 16 bits
Compression mode : Lossy
Stream size : 138 MiB (5%)
Default : Yes
Forced : No

Скриншоты



Создавать темы 03-Дек-2016 17:16

[Профиль]  [ЛС] 

europrint

Стаж: 6 лет 8 месяцев

Сообщений: 26

Симпатии: 2

Если верить по постеру это явно тянет на ТВ3. Те кто смотрели уже они со мной согласятся.

Создавать темы 04-Дек-2016 10:46

[Профиль]  [ЛС] 

totsamiy

Стаж: 5 лет 4 месяца

Сообщений: 145

Симпатии: 22

987928Если верить по постеру это явно тянет на ТВ3. Те кто смотрели уже они со мной согласятся.
IMDb: 7.70 (1445)

Создавать темы 05-Дек-2016 21:28

[Профиль]  [ЛС] 

Saidlaziz

Стаж: 2 года

Сообщений: 1

фильм отстой... вааабше хреновый я бы не дал не хрена за этот фильм нечего. Нечего возмутительного еще не видел!

Создавать темы 29-Дек-2016 20:55

[Профиль]  [ЛС] 

Don_OmaR

Стаж: 5 лет 7 месяцев

Сообщений: 90

Симпатии: 5

В Японии тоже ТВ3 снимают? Завидно... Но Аниме им лучше даётся. ay

Создавать темы 29-Дек-2016 21:36

[Профиль]  [ЛС] 
Показать сообщения:    
Ответить на тему

Текущее время: 18-Окт 23:23

Часовой пояс: UTC + 5



Вы не можете начинать темы
Вы не можете отвечать на сообщения
Вы не можете редактировать свои сообщения
Вы не можете удалять свои сообщения
Вы не можете голосовать в опросах
Вы не можете прикреплять файлы к сообщениям
Вы не можете скачивать файлы