Ученик чародея / The Sorcerer's Apprentice (Джон Тёртелтауб) [2010 г., боевик, фэнтези, комедия, драма, приключения, BDrip 1080p]

Страницы :  1, 2, 3  След.

Ответить на тему
 

basma4 ®

Стаж: 7 лет 8 месяцев

Сообщений: 74

Симпатии: 19

Ученик чародея / The Sorcerer's Apprentice Год выпуска: 2010
Страна: США, Walt Disney Pictures
Жанр: Боевик, Фэнтези, Комедия, Драма, Приключения
Продолжительность: 01:49:02
Перевод: Дублированный [лицензия]
Режиссер: Джон Тёртелтауб
В ролях: Николас Кейдж, Джей Барушель, Альфред Молина, Тереза Палмер, Тоби Кеббелл, Омар Бенсон Миллер, Моника Беллуччи, Элис Крайдж, Джэйк Черри, Джеймс А. Стефенс
Описание:Манхэттен, наши дни. Мастер магии Бальтазар Блэйк пытается защитить Нью-Йорк от своего старого врага Максима Хорвата — злобного колдуна с самыми черными планами. Однако, Бальтазар чувствует, что не справится один и ему нужен помощник. На эту роль он выбирает самого обычного парня Дэйва, который вовсе не хочет спасать мир. Однако ему придется пройти ускоренный курс магии и вступить в битву.

Качество: BDrip
Формат: MKV
Видео: H.264 (AVC), ~12846 Кбит/с, 1920x800, 23.976
Аудио: Русский (AC3, 6 ch, 384 Кбит/с) / Английский (DTS, 6 ch, 1536 Кбит/с)
Субтитры: Английские, румынские

Медиа инфо

General
Format : Matroska
File size : 11.2 GiB
Duration : 1h 49mn
Overall bit rate : 14.7 Mbps
Encoded date : UTC 2010-11-17 18:55:34
Writing application : mkvmerge v4.4.0 ('Die Wiederkehr') сборка от Oct 31 2010 21:52:48
Writing library : libebml v1.0.0 + libmatroska v1.0.0
Video #1
ID : 1
Format : AVC
Format/Info : Advanced Video Codec
Format profile : [email protected]
Format settings, CABAC : Yes
Format settings, ReFrames : 5 frames
Muxing mode : Container [email protected]
Codec ID : V_MPEG4/ISO/AVC
Duration : 1h 48mn
Bit rate : 12.5 Mbps
Nominal bit rate : 12.8 Mbps
Width : 1 920 pixels
Height : 800 pixels
Display aspect ratio : 2.40:1
Frame rate : 23.976 fps
Resolution : 24 bits
Colorimetry : 4:2:0
Scan type : Progressive
Bits/(Pixel*Frame) : 0.341
Stream size : 9.54 GiB (85%)
Writing library : x264 core 104 r1698 c41b8f0
Audio #2
ID : 2
Format : AC-3
Format/Info : Audio Coding 3
Codec ID : A_AC3
Duration : 1h 49mn
Bit rate mode : Constant
Bit rate : 384 Kbps
Channel(s) : 6 channels
Channel positions : Front: L C R, Surround: L R, LFE
Sampling rate : 48.0 KHz
Stream size : 300 MiB (3%)
Title : AC3 5.1 @ 384 kbps - Дублированный, R5
Language : Russian
Audio #3
ID : 3
Format : DTS
Format/Info : Digital Theater Systems
Codec ID : A_DTS
Duration : 1h 49mn
Bit rate mode : Constant
Bit rate : 1 510 Kbps
Channel(s) : 6 channels
Channel positions : Front: L C R, Surround: L R, LFE
Sampling rate : 48.0 KHz
Resolution : 24 bits
Video delay : 11ms
Stream size : 1.15 GiB (10%)
Title : DTS 5.1 @ 1536 kbps - Оригинал
Text #4
ID : 4
Format : UTF-8
Codec ID : S_TEXT/UTF8
Codec ID/Info : UTF-8 Plain Text
Language : Romanian
Text #5
ID : 5
Format : UTF-8
Codec ID : S_TEXT/UTF8
Codec ID/Info : UTF-8 Plain Text

Кадры из фильма





Последний раз редактировалось: basma4 (2011-09-02 21:01), всего редактировалось 5 раз(а)

Создавать темы 19-Ноя-2010 20:28

[Профиль]  [ЛС] 

Faxa

Стаж: 7 лет 4 месяца

Сообщений: 115

Симпатии: 4

Можна ставить и золотую раздачу !

Создавать темы 19-Ноя-2010 20:35

[Профиль]  [ЛС] 

elia

Стаж: 6 лет 10 месяцев

Сообщений: 13

скрины ни очём не говорят, мог-бы и постараться

Создавать темы 21-Ноя-2010 15:32

[Профиль]  [ЛС] 

junior

Стаж: 7 лет 9 месяцев

Сообщений: 138

Симпатии: 7

elia
а о чём должны говорить скриншоты?

Создавать темы 21-Ноя-2010 15:39

[Профиль]  [ЛС] 

Эльяр

Стаж: 7 лет 9 месяцев

Сообщений: 48

Симпатии: 4

basma4, спасибо брателло, молодец! az

Создавать темы 22-Ноя-2010 18:52

[Профиль]  [ЛС] 

crumb

Стаж: 6 лет 11 месяцев

Сообщений: 160

Симпатии: 9

elia скрины ни очём не говорят, мог-бы и постараться
поддерживаю, скрины должны интриговать, тоесть делать скрины с интересных, эффектных участках фильма, а не просто для того чтобы посмотреть качество и разрешение картинки.
Если уж модераторы об этом не знают, то что говорить об обычных пользователях!

Создавать темы 22-Ноя-2010 20:58

[Профиль]  [ЛС] 

elia

Стаж: 6 лет 10 месяцев

Сообщений: 13

crumb, согласен на 100%

Создавать темы 22-Ноя-2010 23:01

[Профиль]  [ЛС] 

rbhome

Стаж: 8 лет 8 месяцев

Сообщений: 134

Симпатии: 5

crumb
elia
Не согласен ни разу! скрин на то и скрин чтоб качество посмотреть. Интрига есть в постерах. Смотрите кинопоискру или киномануз.

Создавать темы 23-Ноя-2010 00:02

[Профиль]  [ЛС] 

crumb

Стаж: 6 лет 11 месяцев

Сообщений: 160

Симпатии: 9

ПРОЕХАЛИ!

Создавать темы 23-Ноя-2010 00:51

[Профиль]  [ЛС] 

elia

Стаж: 6 лет 10 месяцев

Сообщений: 13

basma4 пожайлуста прибавь скорости, а то с 2-5 Kb/s, чувствую скачаю не скоро.
добавлено спустя 5 часов 40 минут 22 секунды:
Basma прибавь скорострухи, пожайлуста.


Последний раз редактировалось: elia (2010-11-27 00:37), всего редактировалось 1 раз

Создавать темы 27-Ноя-2010 00:37

[Профиль]  [ЛС] 

bahosh

Стаж: 7 лет 3 месяца

Сообщений: 91

Симпатии: 2

Точно elia!basma4 Прибавь плиззззззззззз....

Создавать темы 27-Ноя-2010 21:42

[Профиль]  [ЛС] 

bahosh

Стаж: 7 лет 3 месяца

Сообщений: 91

Симпатии: 2

Народ у вас по 40% пожайлуста прибавьте скорости!100% пока нету дайте хоть мы вас догоним плиззззззз.....

Создавать темы 30-Ноя-2010 17:23

[Профиль]  [ЛС] 

bahosh

Стаж: 7 лет 3 месяца

Сообщений: 91

Симпатии: 2

Ребята а как вы думайте у нас свыше 72% когда будет???

Создавать темы 09-Дек-2010 00:11

[Профиль]  [ЛС] 

Эльяр

Стаж: 7 лет 9 месяцев

Сообщений: 48

Симпатии: 4

bahosh, не боись, к Новому году докачаем. Как раз подарок к празднику будет. ag

Создавать темы 09-Дек-2010 06:49

[Профиль]  [ЛС] 

displays

Стаж: 6 лет 10 месяцев

Сообщений: 6

Братцы добавьте скорости пожалуйста уже целую неделю качаю не могу до качать.

Создавать темы 09-Дек-2010 20:30

[Профиль]  [ЛС] 
Показать сообщения:    
Ответить на тему

Текущее время: 20-Сен 05:26

Часовой пояс: UTC + 5



Вы не можете начинать темы
Вы не можете отвечать на сообщения
Вы не можете редактировать свои сообщения
Вы не можете удалять свои сообщения
Вы не можете голосовать в опросах
Вы не можете прикреплять файлы к сообщениям
Вы не можете скачивать файлы