Поезд в Пусан / Busanhaeng (Ён Сан-хо) [2016, Южная Корея, боевик, триллер, ужасы, HDRip] [iTunes]

Ответить на тему
 

ruhal ®

Стаж: 2 года 6 месяцев

Сообщений: 1181

Симпатии: 1836

- -Поезд в Пусан / Busanhaeng- Страна: Южная Корея
Жанр: боевик, триллер, ужасы
Год выпуска: 2016
Продолжительность: 01:58:09-Перевод: Профессиональный (дублированный) [iTunes]
Cубтитры: нет-Режиссер: Ён Сан-хо-В ролях: Кон Ю, Ма Дон-сок, Чон Ю-ми, Ким Су-ан, Ким И-сон, Чхве У-щик, Ан Со-хи, Чхве Гви-хва, Чон Сок-ён, Е Су-джон-Описание: У маленькой Су-ан день рождения. Девочка живет с отцом в Сеуле и очень хочет отправиться к маме в Пусан. По дороге случается непредвиденное, и на страну обрушивается загадочный вирус. Пассажирам поезда в Пусан - единственного города, отразившего атаки вируса- придется бороться за выживание. 442 километра в пути. Добро пожаловать на борт и помните - в этой гонке недостаточно выжить, чтобы остаться человеком.-Качество видео: HDRip
Формат видео: AVI
Видео: Xvid 704x384 23.976fps 1314kbps
Аудио: Dolby AC3 48000Hz 6ch 384kbps
-

MediaInfo

General
Complete name : E:\Films\Train.to.Busan.2016.BDRip.avi
Format : AVI
Format/Info : Audio Video Interleave
File size : 1.41 GiB
Duration : 1h 58mn
Overall bit rate : 1 706 Kbps
Video
ID : 0
Format : MPEG-4 Visual
Format profile : Advanced [email protected]
Format settings, BVOP : 1
Format settings, QPel : No
Format settings, GMC : No warppoints
Format settings, Matrix : Custom
Codec ID : XVID
Codec ID/Hint : XviD
Duration : 1h 58mn
Bit rate : 1 314 Kbps
Width : 704 pixels
Height : 384 pixels
Display aspect ratio : 1.85:1
Frame rate : 23.976 fps
Color space : YUV
Chroma subsampling : 4:2:0
Bit depth : 8 bits
Scan type : Progressive
Compression mode : Lossy
Bits/(Pixel*Frame) : 0.203
Stream size : 1.08 GiB (77%)
Writing library : XviD 73
Audio
ID : 1
Format : AC-3
Format/Info : Audio Coding 3
Mode extension : CM (complete main)
Format settings, Endianness : Big
Codec ID : 2000
Duration : 1h 58mn
Bit rate mode : Constant
Bit rate : 384 Kbps
Channel(s) : 6 channels
Channel positions : Front: L C R, Side: L R, LFE
Sampling rate : 48.0 KHz
Bit depth : 16 bits
Compression mode : Lossy
Stream size : 324 MiB (22%)
Alignment : Aligned on interleaves
Interleave, duration : 64 ms (1.54 video frames)
Interleave, preload duration : 192 ms
Title : iTunes

Скриншот c названием фильма

Скриншоты




Создавать темы 24-Дек-2016 09:53

[Профиль]  [ЛС] 

nigga22480

Стаж: 7 лет 5 месяцев

Сообщений: 211

Симпатии: 13

Мне вот не нравится фильмы про Зомби, но блин этот фильм понравился. Вот Корейцы умеют снять фильмы, советую кто не смотрел.

Создавать темы 24-Дек-2016 23:58

[Профиль]  [ЛС] 

andromeda

Стаж: 1 год 1 месяц

Сообщений: 24

Симпатии: 1

фильм ваще капец всем советую !!!

Создавать темы 26-Дек-2016 13:46

[Профиль]  [ЛС] 
Показать сообщения:    
Ответить на тему

Текущее время: 23-Окт 18:23

Часовой пояс: UTC + 5



Вы не можете начинать темы
Вы не можете отвечать на сообщения
Вы не можете редактировать свои сообщения
Вы не можете удалять свои сообщения
Вы не можете голосовать в опросах
Вы не можете прикреплять файлы к сообщениям
Вы не можете скачивать файлы