Шрэк навсегда / Shrek Forever After (Майк Митчел) [2010 г., Фэнтези, комедия, приключения, семейный, мультфильм., 1080p BDrip]

Страницы :  1, 2  След.

Ответить на тему
 

basma4 ®

Стаж: 7 лет 10 месяцев

Сообщений: 74

Симпатии: 19

Шрэк навсегда / Shrek Forever After [2010 г., Фэнтези, комедия, приключения, семейный, мультфильм., 1080p BDrip]-
Год выпуска: 2010
Страна: США
Жанр: Фэнтези, комедия, приключения, семейный, мультфильм.
Продолжительность: 01:33:10
Перевод: Профессиональный (полное дублирование)
Режиссер: Майк Митчел
В ролях: Майк Майерс, Эдди Мёрфи, Кэмерон Диаз, Антонио Бандерас, Джули Эндрюс, Джон Хэмм, Джон Клиз, Крэйг Робинсон, Уолт Дорн, Джейн Линч (Алексей Колган, Вадим Андреев, Юрий Мазихин, Жанна Никонова, Всеволод Кузнецов и др.).Описание: Чем бы еще заняться огру, который уже сразился со злым драконом, спас прекрасную принцессу и уберег от беды королевство родственников по линии жены? Что ж, если вы Шрэк, то, сами того не заметив, вы вдруг сядете дома и станете наслаждаться покоем в кругу семьи. Вместо того чтобы как раньше пугать деревенских жителей, теперь Шрэк, хоть и с неохотой, но соглашается оставлять автографы на их вилах. А куда же подевался знаменитый рык этого огра?..Доп. информация:
Рейтинг на IMDB: 6.7 / 10
Рейтинг на КиноПоиск.RU: 7.35
Рейтинг на MPAA: PG
Качество: BDrip
Формат: MKV
Видео кодек:MPEG-4/AVC
Аудио кодек: AC3
Видео: 1920x816 (2.35:1), 23.976 fps, AVC MPEG4 [email protected], ~6064 kbps avg, 0.161 bit/pixel.
Аудио #1: русский 48 kHz, AC3 Dolby Digital, 3/2 (L,C,R,l,r) + LFE ch, ~448 kbps avg [Профессиональный (полное дублирование)];
Аудио #2: английский 48 kHz, AC3 Dolby Digital, 3/2 (L,C,R,l,r) + LFE ch, ~640 kbps avg [оригинал].

Кадры из фильма



Медиа инфо

General
Format : Matroska
File size : 9.97 GiB
Duration : 1h 43mn
Overall bit rate : 13.8 Mbps
Movie name : Created by DeathN2 for Kinozal.TV-HD
Encoded date : UTC 2010-11-17 11:22:42
Writing application : mkvmerge v4.0.0 ('The Stars were mine') сборка от Jun 6 2010 16:18:42
Writing library : libebml v1.0.0 + libmatroska v1.0.0
Video #1
ID : 1
Format : AVC
Format/Info : Advanced Video Codec
Format profile : [email protected]
Format settings, CABAC : Yes
Format settings, ReFrames : 5 frames
Muxing mode : Container [email protected]
Codec ID : V_MPEG4/ISO/AVC
Duration : 1h 43mn
Bit rate : 11.4 Mbps
Nominal bit rate : 11.7 Mbps
Width : 1 920 pixels
Height : 816 pixels
Display aspect ratio : 2.35:1
Frame rate : 23.976 fps
Resolution : 24 bits
Colorimetry : 4:2:0
Scan type : Progressive
Bits/(Pixel*Frame) : 0.304
Stream size : 8.21 GiB (82%)
Title : Повелитель стихий / The Last Airbender / 2010 / ДБ, СТ / BDRip (1080p) – Кинозал.ТВ-HD
Writing library : x264 core 104 r1703 cd21d05
Audio #2
ID : 2
Format : AC-3
Format/Info : Audio Coding 3
Codec ID : A_AC3
Duration : 1h 43mn
Bit rate mode : Constant
Bit rate : 640 Kbps
Channel(s) : 6 channels
Channel positions : Front: L C R, Surround: L R, LFE
Sampling rate : 48.0 KHz
Stream size : 473 MiB (5%)
Language : Russian
Audio #3
ID : 3
Format : DTS
Format/Info : Digital Theater Systems
Codec ID : A_DTS
Duration : 1h 43mn
Bit rate mode : Constant
Bit rate : 1 510 Kbps
Channel(s) : 6 channels
Channel positions : Front: L C R, Surround: L R, LFE
Sampling rate : 48.0 KHz
Resolution : 24 bits
Stream size : 1.09 GiB (11%)
Text #4
ID : 4
Format : UTF-8
Codec ID : S_TEXT/UTF8
Codec ID/Info : UTF-8 Plain Text
Language : Russian
Text #5
ID : 5
Format : UTF-8
Codec ID : S_TEXT/UTF8
Codec ID/Info : UTF-8 Plain Text


Последний раз редактировалось: basma4 (2010-11-24 13:37), всего редактировалось 2 раз(а)

Создавать темы 19-Ноя-2010 22:59

[Профиль]  [ЛС] 

tima89_21

Стаж: 7 лет 8 месяцев

Сообщений: 93

basma4 когда будет ??

Создавать темы 23-Ноя-2010 11:18

[Профиль]  [ЛС] 

rbhome

Стаж: 8 лет 10 месяцев

Сообщений: 134

Симпатии: 5

и свершилось чудо! мы скачали! теперь дело за "начало"м

Создавать темы 02-Дек-2010 08:45

[Профиль]  [ЛС] 

presler

Стаж: 7 лет 3 месяца

Сообщений: 5

ааа не уходите с раздачи у меня 95% оч обидно будет если не докачаю! плиззз

Создавать темы 02-Дек-2010 20:25

[Профиль]  [ЛС] 

tima89_21

Стаж: 7 лет 8 месяцев

Сообщений: 93

СИДЫ прибавьте скорость 11 дней качаю
добавлено спустя 4 часа 32 минуты 29 секунд:
DeanGeLo, odil, Dexter, Riko, portntv, niro_wolf, rbhome В станьте на раздачу
добавлено спустя 11 часов 16 минут 34 секунды:
Сиды дайте докачать 360 мб осталось


Последний раз редактировалось: tima89_21 (2010-12-06 07:46), всего редактировалось 2 раз(а)

Создавать темы 06-Дек-2010 07:46

[Профиль]  [ЛС] 

displays

Стаж: 7 лет

Сообщений: 6

Дайте пожалуйста газу осталось всего 270 мега.

Создавать темы 10-Дек-2010 08:53

[Профиль]  [ЛС] 

sergik

Стаж: 7 лет 3 месяца

Сообщений: 12

power dvd 10 воспроизводит без звука.В KMP идр.звук есть .Что делать?

Создавать темы 14-Дек-2010 09:55

[Профиль]  [ЛС] 

Gorilla

Стаж: 6 лет 9 месяцев

Сообщений: 91

Симпатии: 11

сиды вернитесь!скорость 0!

Создавать темы 05-Мар-2011 16:02

[Профиль]  [ЛС] 

Gorilla

Стаж: 6 лет 9 месяцев

Сообщений: 91

Симпатии: 11

Скачан: 36 раз.........и где все?вернитесь хоть кто нибудь! ac

Создавать темы 07-Мар-2011 03:30

[Профиль]  [ЛС] 

dj-alligator

Стаж: 7 лет 1 месяц

Сообщений: 94

Симпатии: 4

[2010 г., Фэнтези, комедия, приключения, семейный, мультфильм., 1080p BDrip] ок а интересно Видео: 1920x816 считается 1080р??? это не полный 1080р


Последний раз редактировалось: dj-alligator (2011-03-07 10:21), всего редактировалось 1 раз

Создавать темы 07-Мар-2011 03:37

[Профиль]  [ЛС] 

Shido

Стаж: 6 лет 8 месяцев

Сообщений: 71

Прошу всех кто может - встаньте на раздачу. Буду очень благодарен.

Создавать темы 07-Мар-2011 09:37

[Профиль]  [ЛС] 

Gorilla

Стаж: 6 лет 9 месяцев

Сообщений: 91

Симпатии: 11

странно Скачан: 39 раз и никто даже не поблагодарил ac
СПАСИБО релизеру +5 az

Создавать темы 10-Мар-2011 00:14

[Профиль]  [ЛС] 

hildeN

Стаж: 6 лет 9 месяцев

Сообщений: 59

Симпатии: 2

прибавьте ГАЗУ плыызз

Создавать темы 25-Июл-2011 18:52

[Профиль]  [ЛС] 

hildeN

Стаж: 6 лет 9 месяцев

Сообщений: 59

Симпатии: 2

сиды прибавьте скорости я застрял на 46%

Создавать темы 26-Июл-2011 18:58

[Профиль]  [ЛС] 

hildeN

Стаж: 6 лет 9 месяцев

Сообщений: 59

Симпатии: 2

плызз дайте скорость я уже месяц качаю
Добавлено спустя 3 минуты 13 секунд:
умя неделя на 85% сидит, дайте докачать


Последний раз редактировалось: hildeN (2011-07-31 14:44), всего редактировалось 1 раз

Создавать темы 31-Июл-2011 14:44

[Профиль]  [ЛС] 
Показать сообщения:    
Ответить на тему

Текущее время: 19-Ноя 05:59

Часовой пояс: UTC + 5



Вы не можете начинать темы
Вы не можете отвечать на сообщения
Вы не можете редактировать свои сообщения
Вы не можете удалять свои сообщения
Вы не можете голосовать в опросах
Вы не можете прикреплять файлы к сообщениям
Вы не можете скачивать файлы