Одержимость Эмили / Delirium (Джаред Блэк) [2015, США, ужасы, HDRip] (MVO)

Ответить на тему
 

bbk ®

Стаж: 7 лет

Сообщений: 435

Симпатии: 479

Одержимость Эмили / Delirium
Страна: США
Жанр: ужасы
Год выпуска: 2015
Продолжительность: 01:21:47
Перевод: Любительский (многоголосый закадровый)
Cубтитры: нет
Режиссер: Джаред Блэк
В ролях: Нэйтан Польцин, Джолин Кэй, Тейлор Пиджон, Шалайна Фозерингем, Крис Гэнн, Shawn O'Malley, Sam Spade, Фабиан Аломар, Jim Collins, Элизабет
Описание: Эмили пропала на целый год, а затем загадочным образом вернулась к маме и отчиму. И принесла что-то с собой...
153 IMDb users have given a weighted average vote of 3.0 / 10
Есть реклама
Качество видео: HDRip
Формат видео: AVI
Видео: 720x304 (2.37:1), 23.976 fps, XviD build 50 ~1058 kbps avg, 0.20 bit/pixel
Аудио: 48 kHz, AC3 Dolby Digital, 2/0 (L,R) ch, ~128 kbps

MediaInfo

General
Complete name : D:\Downloads\The.Haunting.of.Emily.2015.P.HDRip.7OOMB_KOSHARA.avi
Format : AVI
Format/Info : Audio Video Interleave
File size : 700 MiB
Duration : 1 h 21 min
Overall bit rate : 1 196 kb/s
Writing application : VirtualDubMod 1.5.10.2 (build 2540/release)
Writing library : VirtualDubMod build 2540/release
Video
ID : 0
Format : MPEG-4 Visual
Format profile : Advanced [email protected]
Format settings, BVOP : 2
Format settings, QPel : No
Format settings, GMC : No warppoints
Format settings, Matrix : Default (MPEG)
Codec ID : XVID
Codec ID/Hint : XviD
Duration : 1 h 21 min
Bit rate : 1 059 kb/s
Width : 720 pixels
Height : 304 pixels
Display aspect ratio : 2.35:1
Frame rate : 23.976 (24000/1001) FPS
Color space : YUV
Chroma subsampling : 4:2:0
Bit depth : 8 bits
Scan type : Progressive
Compression mode : Lossy
Bits/(Pixel*Frame) : 0.202
Stream size : 619 MiB (89%)
Writing library : XviD 1.2.1 (UTC 2008-12-04)
Audio
ID : 1
Format : AC-3
Format/Info : Audio Coding 3
Mode extension : CM (complete main)
Format settings, Endianness : Big
Codec ID : 2000
Duration : 1 h 21 min
Bit rate mode : Constant
Bit rate : 128 kb/s
Channel(s) : 2 channels
Channel positions : Front: L R
Sampling rate : 48.0 kHz
Frame rate : 31.250 FPS (1536 spf)
Bit depth : 16 bits
Compression mode : Lossy
Stream size : 74.9 MiB (11%)
Alignment : Split accross interleaves
Interleave, duration : 42 ms (1.00 video frame)
Interleave, preload duration : 500 ms

Скриншот c названием фильма

Скриншоты



Создавать темы 12-Янв-2017 07:49

[Профиль]  [ЛС] 
Показать сообщения:    
Ответить на тему

Текущее время: 19-Ноя 22:29

Часовой пояс: UTC + 5



Вы не можете начинать темы
Вы не можете отвечать на сообщения
Вы не можете редактировать свои сообщения
Вы не можете удалять свои сообщения
Вы не можете голосовать в опросах
Вы не можете прикреплять файлы к сообщениям
Вы не можете скачивать файлы