Очищение / The Purgation (Элейн Чу) [2015, США, ужасы, триллер, драма, WEB-DLRip] (MVO)

Ответить на тему
 

bbk ®

Стаж: 7 лет

Сообщений: 435

Симпатии: 479

Очищение / The Purgation
Страна: США
Жанр: ужасы, триллер, драма
Год выпуска: 2015
Продолжительность: 01:19:02
Перевод: Любительский (многоголосый закадровый)
Cубтитры: нет
Режиссер: Элейн Чу
В ролях: Тиффани Кью, Кэт Джонстон, Kate Dauphin, Tom Walsh, Corey Fabyan, Megan Truong, Martina D'Ovidio, Pearce Joza, Alex Gruenenfelder, Рэйчел Паркер
Описание: Айрис кажется, что она сходит с ума. Чтобы избежать этого, ей придётся столкнуться с прошлым и отправиться в заброшенную психиатрическую лечебницу, в которой она была в детстве.
 
Имеется реклама от спонсора показа
Качество видео: WEB-DLRip
Формат видео: AVI
Видео: 720x272 (2.65:1), 23.976 fps, XviD build 50 ~1100 kbps avg, 0.23 bit/pixel
Аудио: 48 kHz, AC3 Dolby Digital, 2/0 (L,R) ch, ~128 kbps

MediaInfo

General
Complete name : C:\Users\Administrator\Desktop\The.Purgation.2015.P.WEB-DLRip.7OOMB_KOSHARA.avi
Format : AVI
Format/Info : Audio Video Interleave
File size : 700 MiB
Duration : 1 h 19 min
Overall bit rate : 1 238 kb/s
Writing application : VirtualDubMod 1.5.10.2 (build 2540/release)
Writing library : VirtualDubMod build 2540/release
Video
ID : 0
Format : MPEG-4 Visual
Format profile : Advanced [email protected]
Format settings, BVOP : 2
Format settings, QPel : No
Format settings, GMC : No warppoints
Format settings, Matrix : Default (MPEG)
Codec ID : XVID
Codec ID/Hint : XviD
Duration : 1 h 19 min
Bit rate : 1 101 kb/s
Width : 720 pixels
Height : 272 pixels
Display aspect ratio : 2.647
Frame rate : 23.976 (24000/1001) FPS
Color space : YUV
Chroma subsampling : 4:2:0
Bit depth : 8 bits
Scan type : Progressive
Compression mode : Lossy
Bits/(Pixel*Frame) : 0.234
Stream size : 622 MiB (89%)
Writing library : XviD 1.2.1 (UTC 2008-12-04)
Audio
ID : 1
Format : AC-3
Format/Info : Audio Coding 3
Mode extension : CM (complete main)
Format settings, Endianness : Big
Codec ID : 2000
Duration : 1 h 19 min
Bit rate mode : Constant
Bit rate : 128 kb/s
Channel(s) : 2 channels
Channel positions : Front: L R
Sampling rate : 48.0 kHz
Frame rate : 31.250 FPS (1536 spf)
Bit depth : 16 bits
Compression mode : Lossy
Stream size : 72.4 MiB (10%)
Alignment : Split accross interleaves
Interleave, duration : 42 ms (1.00 video frame)
Interleave, preload duration : 500 ms

Скриншот c названием фильма

Скриншоты



Создавать темы 13-Янв-2017 04:33

[Профиль]  [ЛС] 
Показать сообщения:    
Ответить на тему

Текущее время: 24-Ноя 20:07

Часовой пояс: UTC + 5



Вы не можете начинать темы
Вы не можете отвечать на сообщения
Вы не можете редактировать свои сообщения
Вы не можете удалять свои сообщения
Вы не можете голосовать в опросах
Вы не можете прикреплять файлы к сообщениям
Вы не можете скачивать файлы