Начало / Inception (Кристофер Нолан) [2010 г., фантастика, триллер, драма, детектив, BDRip 1080p]

Страницы :  1, 2, 3  След.

Ответить на тему
 

basma4 ®

Стаж: 7 лет 9 месяцев

Сообщений: 74

Симпатии: 19

Начало / Inception ( 2010 г., Фантастика, Триллер, Драма, Детектив )
«Твой разум - место преступления»
-
Год выпуска: 2010
Страна: США, Великобритания, Warner Bros. Pictures
Жанр: Фантастика, Триллер, Драма, Детектив
Продолжительность: 02:28:11
Перевод: Профессиональный (многоголосый, ВВС Санкт-Петербург)
Добавлено: >> Лицензия звук [перевод] <<
Режиссер: Кристофер Нолан
В ролях:
Леонардо ДиКаприо, Джозеф Гордон-Левитт, Эллен Пейдж, Том Харди, Кен Ватанабе, Дилип Рао, Киллиан Мёрфи, Том Беренджер, Марион Котийяр, Пит ПостлетуэйтОписание: Дом Кобб — талантливый вор, лучший из лучших в опасном искусстве извлечения: он крадет ценные секреты из глубин подсознания во время сна, когда человеческий разум наиболее уязвим. Редкие способности Кобба сделали его ценным игроком в привычном к предательству мире промышленного шпионажа, но они же превратили его в извечного беглеца и лишили всего, что он когда-либо любил.
И вот у Кобба появляется шанс исправить ошибки. Его последнее дело может вернуть все назад, но для этого ему нужно совершить невозможное — инициацию. Вместо идеальной кражи Кобб и его команда спецов должны будут провернуть обратное. Теперь их задача — не украсть идею, а внедрить ее. Если у них получится, это и станет идеальным преступлением.
Но никакое планирование или мастерство не могут подготовить команду к встрече с опасным противником, который, кажется, предугадывает каждый их ход. Врагом, увидеть которого мог бы лишь Кобб.
Доп. информация:
Качество видео: BDRip 1080p
Видеокодек: AVС (H.264)
Формат: MKV
Видео: 9048 Кбит/сек, 1920x800(2,40:1), 23,976 кадр/сек
Аудио #1: Русский DTS 1510 Кбит/сек (6 ch)
Аудио #2: Английский DTS, 1510 Кбит/сек (6 ch)
Субтитры: Русские, Английские

Медиа инфо

General
Format : Matroska
File size : 12.5 GiB
Duration : 2h 28mn
Overall bit rate : 12.1 Mbps
Movie name : Inception.2010.BDRip.1080p
Encoded date : UTC 2010-11-16 19:08:29
Writing application : mkvmerge v4.1.1 ('Bouncin' Back') сборка от Jul 3 2010 22:54:08
Writing library : libebml v1.0.0 + libmatroska v1.0.0
Video #1
ID : 1
Format : AVC
Format/Info : Advanced Video Codec
Format profile : [email protected]
Format settings, CABAC : Yes
Format settings, ReFrames : 5 frames
Muxing mode : Container [email protected]
Codec ID : V_MPEG4/ISO/AVC
Duration : 2h 28mn
Bit rate : 8 800 Kbps
Nominal bit rate : 9 048 Kbps
Width : 1 920 pixels
Height : 800 pixels
Display aspect ratio : 2.40:1
Frame rate : 23.976 fps
Resolution : 24 bits
Colorimetry : 4:2:0
Scan type : Progressive
Bits/(Pixel*Frame) : 0.239
Stream size : 9.10 GiB (73%)
Title : Inception.2010.BDRip.1080p
Writing library : x264 core 107 r1766 f9f0035
Audio #2
ID : 2
Format : DTS
Format/Info : Digital Theater Systems
Codec ID : A_DTS
Duration : 2h 28mn
Bit rate mode : Constant
Bit rate : 1 510 Kbps
Channel(s) : 6 channels
Channel positions : Front: L C R, Surround: L R, LFE
Sampling rate : 48.0 KHz
Resolution : 24 bits
Stream size : 1.56 GiB (13%)
Title : DTS 5.1 @ 1510 kb/s MVO [BBC Saint-Petersburg]
Language : Russian
Audio #3
ID : 3
Format : DTS
Format/Info : Digital Theater Systems
Codec ID : A_DTS
Duration : 2h 28mn
Bit rate mode : Constant
Bit rate : 1 510 Kbps
Channel(s) : 6 channels
Channel positions : Front: L C R, Surround: L R, LFE
Sampling rate : 48.0 KHz
Resolution : 24 bits
Video delay : 11ms
Stream size : 1.56 GiB (13%)
Title : DTS 5.1 @ 1510 kb/s [English]
Text #4
ID : 4
Format : UTF-8
Codec ID : S_TEXT/UTF8
Codec ID/Info : UTF-8 Plain Text
Title : Russian SUB
Language : Russian
Text #5
ID : 5
Format : UTF-8
Codec ID : S_TEXT/UTF8
Codec ID/Info : UTF-8 Plain Text
Title : English SUB

Кадры из фильма





Последний раз редактировалось: basma4 (2011-09-02 21:13), всего редактировалось 8 раз(а)

Создавать темы 20-Ноя-2010 02:41

[Профиль]  [ЛС] 

ustas

Стаж: 8 лет 9 месяцев

Сообщений: 53

Симпатии: 17

красава

Создавать темы 22-Ноя-2010 19:29

[Профиль]  [ЛС] 

Dexter

Стаж: 7 лет 3 месяца

Сообщений: 7

Уважаемый basma4 с появлением дубляжа прикрепите дорожку отдельным файлом

Создавать темы 22-Ноя-2010 21:08

[Профиль]  [ЛС] 

rbhome

Стаж: 8 лет 9 месяцев

Сообщений: 134

Симпатии: 5

basma4
медленно скачивать это конешно бывает хорошо. рейтинг могут многие поднять и все такое. Но скачивать 15 дней. Имхо многовато. Быть может стоит раздать по череди все твои 4 замечательных релиза!
Мне кажется так всем будет удобнее. Если тебе так не удобно будем ждать.

Создавать темы 25-Ноя-2010 21:54

[Профиль]  [ЛС] 

lotto

Стаж: 7 лет 9 месяцев

Сообщений: 221

Симпатии: 409

жаль что нету варианта с 720 строк в районе 1 ДВД.

Создавать темы 28-Ноя-2010 16:21

[Профиль]  [ЛС] 

Samuil_M

Стаж: 7 лет 7 месяцев

Сообщений: 7

basma4, понизь пожалуйста скорость раздачи других торрентов. Это не дело на такой скорости каать фильм такого обьема.
Все уже заждались...

Создавать темы 01-Дек-2010 20:00

[Профиль]  [ЛС] 

rbhome

Стаж: 8 лет 9 месяцев

Сообщений: 134

Симпатии: 5

basma4, понизь пожалуйста скорость раздачи других торрентов. Это не дело на такой скорости каать фильм такого обьема.
Все уже заждались...
согласен.
добавлено спустя 16 часов 42 минуты:
basma4
Спасибо!!! за повышение скорости!


Последний раз редактировалось: rbhome (2010-12-02 14:00), всего редактировалось 1 раз

Создавать темы 02-Дек-2010 14:00

[Профиль]  [ЛС] 

rbhome

Стаж: 8 лет 9 месяцев

Сообщений: 134

Симпатии: 5

enfant24 спасибо! давно бы помог уж.
а какая у тебя скорость раздачи?

Создавать темы 02-Дек-2010 16:26

[Профиль]  [ЛС] 

rbhome

Стаж: 8 лет 9 месяцев

Сообщений: 134

Симпатии: 5

вот снег выпал а мы еще качаем ;)

Создавать темы 03-Дек-2010 18:06

[Профиль]  [ЛС] 

rbhome

Стаж: 8 лет 9 месяцев

Сообщений: 134

Симпатии: 5

basma4
значит успеешь раздать до снега. ато потом как навалит до весны не видать будет!

Создавать темы 03-Дек-2010 18:33

[Профиль]  [ЛС] 

Husniddin

Стаж: 7 лет 6 месяцев

Сообщений: 24

Симпатии: 9

rbhome
Да ничего докачаете 92% в Ташкенте уже есть снег до Андижана ещё ОгоГо !

Создавать темы 03-Дек-2010 18:53

[Профиль]  [ЛС] 

corpse

Стаж: 7 лет 5 месяцев

Сообщений: 13

дайте газу закачка от 5 до 10 хотя бы ночью.

Создавать темы 05-Дек-2010 23:14

[Профиль]  [ЛС] 

daemon3313

Стаж: 6 лет 11 месяцев

Сообщений: 18

Симпатии: 2

Фильм на все 10 из 10!!! Всем советую скачать! Лихо закрученый сюжет, безупречная игра актеров, фильм держит в напряжении от первой и до последней минуты, что можно еще сказать, смотрите, и все увидите сами!!!

Создавать темы 09-Дек-2010 19:36

[Профиль]  [ЛС] 

sch

Стаж: 6 лет 11 месяцев

Сообщений: 6

добавьте скорости пож.!

Создавать темы 14-Мар-2011 00:35

[Профиль]  [ЛС] 

madd

Стаж: 6 лет 6 месяцев

Сообщений: 25

Симпатии: 13

Блин, что такое, вместо Inception качается Время Ведьм?!!!!!!
Добавлено спустя 21 минута 47 секунд:
Админ, проверь этот файл, он реально глючит. Попробовал заново скачать, теперь качает какойто mp3 файл


Последний раз редактировалось: madd (2011-04-07 15:54), всего редактировалось 1 раз

Создавать темы 07-Апр-2011 15:54

[Профиль]  [ЛС] 
Показать сообщения:    
Ответить на тему

Текущее время: 17-Окт 20:20

Часовой пояс: UTC + 5



Вы не можете начинать темы
Вы не можете отвечать на сообщения
Вы не можете редактировать свои сообщения
Вы не можете удалять свои сообщения
Вы не можете голосовать в опросах
Вы не можете прикреплять файлы к сообщениям
Вы не можете скачивать файлы